Начать новую тему Ответить на тему
Статистика раздачи
Размер: 531.73 МБ | Добавлен: 26 июн 2020, 17:33 | Скачали: 0
Сидеров: 0  [0 байт/сек]    Личеров: 0  [0 байт/сек]
Пред. тема | След. тема 

Автор
Сообщение

СообщениеДобавлено: 26 июн 2020, 17:33 

Ответить с цитатой 

Retractor - No Resistance
Жанр: EBM / Electro / Industrial
Год выпуска диска: 2005
Производитель диска: Poland
Аудио кодек: APE
Тип рипа: image+.cue
Битрейт аудио: lossless
Продолжительность: 65:26
Трэклист:
01 Theory (3:18)
02 One Man's War (4:15)
03 Evolution (4:27)
04 Morbid Place (5:10)
05 Possessions (4:40)
06 Resistance (4:30)
07 Beheaded (5:01)
08 Psycho Vs. Killer (4:57)
09 Final Defense (4:07)
10 Redemption (3:52)
11 Prominent (3:23)
12 For Once (5:39)
13 You Don't Know (5:44)
14 Harm (4:07)
15 CO2 (2:18)
Доп. информация: Black Flames Records; BFCD 030
Код:
Exact Audio Copy V0.99 prebeta 3 from 28. July 2007
EAC extraction logfile from 11. January 2009, 19:30
Retractor / No Resistance
Used drive  : PIONEER DVD-RW  DVR-110D   Adapter: 1  ID: 1
Read mode               : Secure
Utilize accurate stream : Yes
Defeat audio cache      : Yes
Make use of C2 pointers : No
Read offset correction                      : 48
Overread into Lead-In and Lead-Out          : No
Fill up missing offset samples with silence : Yes
Delete leading and trailing silent blocks   : No
Null samples used in CRC calculations       : Yes
Used interface                              : Native Win32 interface for Win NT & 2000
Used output format : Internal WAV Routines
Sample format      : 44.100 Hz; 16 Bit; Stereo
TOC of the extracted CD
     Track |   Start  |  Length  | Start sector | End sector
    ---------------------------------------------------------
        1  |  0:00.00 |  3:18.06 |         0    |    14855
        2  |  3:18.06 |  4:14.58 |     14856    |    33963
        3  |  7:32.64 |  4:27.03 |     33964    |    53991
        4  | 11:59.67 |  5:10.15 |     53992    |    77256
        5  | 17:10.07 |  4:39.48 |     77257    |    98229
        6  | 21:49.55 |  4:29.54 |     98230    |   118458
        7  | 26:19.34 |  5:01.20 |    118459    |   141053
        8  | 31:20.54 |  4:56.43 |    141054    |   163296
        9  | 36:17.22 |  4:06.59 |    163297    |   181805
       10  | 40:24.06 |  3:51.70 |    181806    |   199200
       11  | 44:16.01 |  3:22.44 |    199201    |   214394
       12  | 47:38.45 |  5:39.01 |    214395    |   239820
       13  | 53:17.46 |  5:43.39 |    239821    |   265584
       14  | 59:01.10 |  4:07.17 |    265585    |   284126
       15  | 63:08.27 |  2:17.50 |    284127    |   294451
Range status and errors
Selected range
     Filename G:\MUSIC_OUT_NEW\Retractor - No Resistance\CDImage.wav
     Peak level 100.0 %
     Range quality 100.0 %
     Test CRC BC0F58BC
     Copy CRC BC0F58BC
     Copy OK
No errors occurred
AccurateRip summary
Track  1  not present in database
Track  2  not present in database
Track  3  not present in database
Track  4  not present in database
Track  5  not present in database
Track  6  not present in database
Track  7  not present in database
Track  8  not present in database
Track  9  not present in database
Track 10  not present in database
Track 11  not present in database
Track 12  not present in database
Track 13  not present in database
Track 14  not present in database
Track 15  not present in database
None of the tracks are present in the AccurateRip database
End of status report
Код:
AUDIOCHECKER v2.0 beta (build 457) - by Dester - opdester@freemail.hu
~~~~~~~~~~~~~~~~~~~~~~~~~~~~~~~~~~
-=== DO NOT EDIT THIS FILE! ===-
Path: ...\Retractor - No Resistance
1 -=- CDImage.wav -=- CDDA (100%)
190127764
Правила, инструкции, FAQ!!!
Торрент  Добавлен [26 июн 2020, 17:33] Скачать торрент Магнет ссылка
Скачать торрент
[ Размер 11.09 КБ / Просмотров 6 ]

Статус
Проверен 
 
Размер  531.73 МБ
Приватный: Нет (DHT включён)
.torrent скачан  0
 


     Отправить личное сообщение
   
Страница 1 из 1
Показать сообщения за:  Поле сортировки  
Начать новую тему Ответить на тему


Сейчас этот форум просматривают: нет зарегистрированных пользователей и гости: 0


Вы не можете начинать темы
Вы не можете отвечать на сообщения
Вы не можете редактировать свои сообщения
Вы не можете удалять свои сообщения
Вы не можете добавлять вложения

Перейти:  
cron