Начать новую тему Ответить на тему
Статистика раздачи
Размер: 368.08 МБ | Добавлен: 26 июн 2020, 19:54 | Скачали: 0
Сидеров: 0  [0 байт/сек]    Личеров: 0  [0 байт/сек]
Пред. тема | След. тема 

Автор
Сообщение

СообщениеДобавлено: 26 июн 2020, 19:54 

Ответить с цитатой 

Rein[Forced] - Futile Longings Of A Condescending Man
Жанр: EBM / Electro / Industrial
Год выпуска диска: 2006
Производитель диска: US
Аудио кодек: APE
Тип рипа: image+.cue
Битрейт аудио: lossless
Продолжительность: 55:33
Трэклист:
1 Waster (6:32)
2 Hiatus (6:18)
3 The Weakening (4:09)
4 Displacement (4:29)
5 Commitment Suicide (5:18)
6 Cyn-dicated (5:14)
7 Boiling Point (4:25)
8 Poseur (4:27)
9 Futile (8:02)
10 Crisis (6:34)
Доп. информация: DSBP; DSBP #1074
Код:
Exact Audio Copy V0.99 prebeta 4 from 23. January 2008
EAC extraction logfile from 29. April 2009, 17:04
Rein[Forced] / Futile Longings Of A Condescending Man
Used drive  : PLEXTOR CD-R   PX-W4824A   Adapter: 1  ID: 1
Read mode               : Secure
Utilize accurate stream : Yes
Defeat audio cache      : Yes
Make use of C2 pointers : No
Read offset correction                      : 98
Overread into Lead-In and Lead-Out          : No
Fill up missing offset samples with silence : Yes
Delete leading and trailing silent blocks   : No
Null samples used in CRC calculations       : Yes
Used interface                              : Installed external ASPI interface
Used output format : Internal WAV Routines
Sample format      : 44.100 Hz; 16 Bit; Stereo
TOC of the extracted CD
     Track |   Start  |  Length  | Start sector | End sector
    ---------------------------------------------------------
        1  |  0:00.00 |  6:32.24 |         0    |    29423
        2  |  6:32.24 |  6:18.31 |     29424    |    57804
        3  | 12:50.55 |  4:09.41 |     57805    |    76520
        4  | 17:00.21 |  4:29.56 |     76521    |    96751
        5  | 21:30.02 |  5:18.39 |     96752    |   120640
        6  | 26:48.41 |  5:14.48 |    120641    |   144238
        7  | 32:03.14 |  4:25.28 |    144239    |   164141
        8  | 36:28.42 |  4:27.02 |    164142    |   184168
        9  | 40:55.44 |  8:02.58 |    184169    |   220376
       10  | 48:58.27 |  6:34.66 |    220377    |   249992
Range status and errors
Selected range
   Filename K:\Rein[Forced] - Futile Longings Of A Condescending Man\CDImage.wav
   Peak level 100.0 %
   Range quality 100.0 %
   Test CRC 9CE21BB0
   Copy CRC 9CE21BB0
   Copy OK
No errors occurred
AccurateRip summary
Track  1  not present in database
Track  2  not present in database
Track  3  not present in database
Track  4  not present in database
Track  5  not present in database
Track  6  not present in database
Track  7  not present in database
Track  8  not present in database
Track  9  not present in database
Track 10  not present in database
None of the tracks are present in the AccurateRip database
End of status report
Код:
AUDIOCHECKER v2.0 beta (build 457) - by Dester - opdester@freemail.hu
~~~~~~~~~~~~~~~~~~~~~~~~~~~~~~~~~~
-=== DO NOT EDIT THIS FILE! ===-
Path: ...\Rein[Forced] - Futile Longings Of A Condescending Man
01 -=- CDImage.wav -=- CDDA (100%)
190127764
Cканы в комплекте.
Не забываем про спасибы
Правила, инструкции, FAQ!!!
Торрент  Добавлен [26 июн 2020, 19:54] Скачать торрент Магнет ссылка
Скачать торрент
[ Размер 15.27 КБ / Просмотров 6 ]

Статус
Проверен 
 
Размер  368.08 МБ
Приватный: Нет (DHT включён)
.torrent скачан  0
 


     Отправить личное сообщение
   
Страница 1 из 1
Показать сообщения за:  Поле сортировки  
Начать новую тему Ответить на тему


Сейчас этот форум просматривают: нет зарегистрированных пользователей и гости: 0


Вы не можете начинать темы
Вы не можете отвечать на сообщения
Вы не можете редактировать свои сообщения
Вы не можете удалять свои сообщения
Вы не можете добавлять вложения

Перейти:  
cron