Начать новую тему Ответить на тему
Статистика раздачи
Размер: 292.78 МБ | Добавлен: 26 июн 2020, 17:28 | Скачали: 0
Сидеров: 0  [0 байт/сек]    Личеров: 0  [0 байт/сек]
Пред. тема | След. тема 

Автор
Сообщение

СообщениеДобавлено: 26 июн 2020, 17:28 

Ответить с цитатой 

Red Cell - Lead Or Follow
Жанр: EBM, Electro, Industrial
Год выпуска диска: 2008
Производитель диска: Sweden
Аудио кодек: FLAC
Тип рипа: image+.cue
Битрейт аудио: lossless
Продолжительность: 00:37:51
Трэклист:
01. Shine 3:06
02. Broken Smile 2:48
03. Substitute 5:09
04. New Condition 4:13
05. Silent Noise 4:23
06. Movement 3:12
07. No Soul Control 2:53
08. Lust 4:25
09. Attention 3:57
10. Grace 3:42
Код:
Exact Audio Copy V0.99 prebeta 5 from 4. May 2009
Отчёт EAC об извлечении, выполненном 8. июля 2010, 18:24
Red Cell / Lead Or Follow
Дисковод: Optiarc DVD RW AD-7201S   Adapter: 2  ID: 1
Режим чтения                 : Достоверность
Использование точного потока : Да
Отключение кэша аудио        : Да
Использование указателей C2  : Нет
Коррекция смещения при чтении                     : 48
Способность читать области Lead-in и Lead-out     : Нет
Заполнение пропущенных сэмплов тишиной            : Да
Удаление блоков с тишиной в начале и конце        : Нет
При вычислениях CRC использовались нулевые сэмплы : Да
Интерфейс                                         : Встроенный Win32-интерфейс для Win NT/2000
Выходной формат : Внутренние WAV-операции
Формат сэмплов  : 44.100 Гц; 16 бит; стерео
TOC извлечённого CD
     Трек |   Старт  | Длительность | Начальный сектор | Конечный сектор
    ---------------------------------------------------------------------
       1  |  0:00.00 |    3:06.51   |           0      |      14000
       2  |  3:06.51 |    2:48.03   |       14001      |      26603
       3  |  5:54.54 |    5:09.10   |       26604      |      49788
       4  | 11:03.64 |    4:13.02   |       49789      |      68765
       5  | 15:16.66 |    4:23.00   |       68766      |      88490
       6  | 19:39.66 |    3:12.31   |       88491      |     102921
       7  | 22:52.22 |    2:53.27   |      102922      |     115923
       8  | 25:45.49 |    4:25.24   |      115924      |     135822
       9  | 30:10.73 |    3:57.38   |      135823      |     153635
      10  | 34:08.36 |    3:42.62   |      153636      |     170347
Характеристики диапазона извлечения и сообщения об ошибках
Выбранный диапазон
     Имя файла D:\Раздачи\Red Cell  - Lead Or Follow\Red Cell - Lead Or Follow.wav
     Пиковый уровень 99.8 %
     Качество диапазона 99.9 %
     CRC теста 9EC193BF
     CRC копии 9EC193BF
     Копирование... OK
Ошибок не произошло
Конец отчёта
Код:
Started at: четверг, 08. 07. 2010. - 18:29.03
1 file found
1 -===- D:\Раздачи\Red Cell  - Lead Or Follow\Red Cell - Lead Or Follow.flac
  Extracted successfully
  Conclusion: this track is CDDA with probability 100%
  Tempfile successfully deleted.
Finished at: четверг, 08. 07. 2010. - 18:33.19 (operation time: 0:04.15)
Label:Progress Productions
Catalog#:PROCD 017
Format:CD, Album
Country:Sweden
Released:14 May 2008
Genre:Electronic
Style:EBM, Electro, Industrial
Правила, инструкции, FAQ!!!
Торрент  Добавлен [26 июн 2020, 17:28] Скачать торрент Магнет ссылка
Скачать торрент
[ Размер 12.28 КБ / Просмотров 9 ]

Статус
Проверен 
 
Размер  292.78 МБ
Приватный: Нет (DHT включён)
.torrent скачан  0
 


     Отправить личное сообщение
   
Страница 1 из 1
Показать сообщения за:  Поле сортировки  
Начать новую тему Ответить на тему


Сейчас этот форум просматривают: нет зарегистрированных пользователей и гости: 0


Вы не можете начинать темы
Вы не можете отвечать на сообщения
Вы не можете редактировать свои сообщения
Вы не можете удалять свои сообщения
Вы не можете добавлять вложения

Перейти:  
cron