Начать новую тему Ответить на тему
Статистика раздачи
Размер: 485.57 МБ | Добавлен: 26 июн 2020, 20:41 | Скачали: 0
Сидеров: 0  [0 байт/сек]    Личеров: 0  [0 байт/сек]
Пред. тема | След. тема 

Автор
Сообщение

СообщениеДобавлено: 26 июн 2020, 20:41 

Ответить с цитатой 

reAdjust / Mindwalk
Жанр: EBM, Electro, Industrial
Страна-производитель диска: Germany
Год издания диска: 2011
Издатель (лейбл): Not On Label
Номер по каталогу: None
Страна: Germany
Аудиокодек: FLAC (*.flac)
Тип рипа: image+.cue
Битрейт аудио: lossless
Продолжительность: 1:07:31.14
Источник (релизер): CD из личной коллекции.
Наличие сканов в содержимом раздачи: да
Треклист:
01. Rape your God 04:45
02. Final Shot 04:42
03. Failed 05:32
04. Strong 04:47
05. Dead Whore 05:28
06. Stop the Sequence 04:58
07. Army of Bastards 04:23
08. Lost 03:50
09. Brilliant Brutal 04:46
10. What will happen 05:17
11. Rape your God (Remix by Dolls of Pain) 05:16
12. Failed (Remix by Incubite) 04:05
13. Rape your God (Remix by Disturbance Factor) 05:00
14. Failed (Remix by Stereomotion) 04:02
Код:
Exact Audio Copy V0.99 prebeta 5 from 4. May 2009
Отчёт EAC об извлечении, выполненном 19. мая 2011, 15:27
reAdjust / Mindwalk
Дисковод: TSSTcorpCDDVDW TS-L632H   Adapter: 0  ID: 0
Режим чтения                 : Достоверность
Использование точного потока : Да
Отключение кэша аудио        : Да
Использование указателей C2  : Нет
Коррекция смещения при чтении                     : 6
Способность читать области Lead-in и Lead-out     : Нет
Заполнение пропущенных сэмплов тишиной            : Да
Удаление блоков с тишиной в начале и конце        : Нет
При вычислениях CRC использовались нулевые сэмплы : Да
Интерфейс                                         : Встроенный Win32-интерфейс для Win NT/2000
Выходной формат          : Пользовательский кодировщик
Выбранный битрейт        : 1024 kBit/s
Качество                 : Высокий
Добавление ID3-тэга      : Нет
Утилита сжатия           : C:\Program Files\Exact Audio Copy\FLAC\FLAC.EXE
Дополнительные параметры : -6 -V -T "ARTIST=%a" -T "TITLE=%t" -T "ALBUM=%g" -T "DATE=%y" -T "TRACKNUMBER=%n" -T "GENRE=%m" -T "COMMENT=%e" %s -o %d
TOC извлечённого CD
     Трек |   Старт  | Длительность | Начальный сектор | Конечный сектор
    ---------------------------------------------------------------------
       1  |  0:00.00 |    4:48.30   |           0      |      21629
       2  |  4:48.30 |    4:45.15   |       21630      |      43019
       3  |  9:33.45 |    5:35.03   |       43020      |      68147
       4  | 15:08.48 |    4:50.10   |       68148      |      89907
       5  | 19:58.58 |    5:30.31   |       89908      |     114688
       6  | 25:29.14 |    5:02.44   |      114689      |     137382
       7  | 30:31.58 |    4:25.54   |      137383      |     157311
       8  | 34:57.37 |    3:52.50   |      157312      |     174761
       9  | 38:50.12 |    4:48.23   |      174762      |     196384
      10  | 43:38.35 |    5:20.09   |      196385      |     220393
      11  | 48:58.44 |    5:18.56   |      220394      |     244299
      12  | 54:17.25 |    4:07.69   |      244300      |     262893
      13  | 58:25.19 |    5:02.50   |      262894      |     285593
      14  | 63:27.69 |    4:03.20   |      285594      |     303838
Характеристики диапазона извлечения и сообщения об ошибках
Выбранный диапазон
     Имя файла C:\Users\Алексей\Desktop\iPOD\reAdjust - Mindwalk.wav
     Пиковый уровень 96.6 %
     Качество диапазона 99.9 %
     CRC теста 3977D74E
     CRC копии 3977D74E
     Копирование... OK
Ошибок не произошло
AccurateRip: сводка
Трек  1  нет в базе данных
Трек  2  нет в базе данных
Трек  3  нет в базе данных
Трек  4  нет в базе данных
Трек  5  нет в базе данных
Трек  6  нет в базе данных
Трек  7  нет в базе данных
Трек  8  нет в базе данных
Трек  9  нет в базе данных
Трек 10  нет в базе данных
Трек 11  нет в базе данных
Трек 12  нет в базе данных
Трек 13  нет в базе данных
Трек 14  нет в базе данных
Ни одного трека нет в базе AccurateRip
Конец отчёта
Код:
REM GENRE "EBM Industrial"
REM DATE 2011
REM DISCID B10FD30E
REM COMMENT "ExactAudioCopy v0.99pb5"
PERFORMER "reAdjust"
TITLE "Mindwalk"
FILE "reAdjust - Mindwalk.flac" WAVE
  TRACK 01 AUDIO
    TITLE "Rape Your God"
    PERFORMER "reAdjust"
    INDEX 01 00:00:00
  TRACK 02 AUDIO
    TITLE "Final Shot"
    PERFORMER "reAdjust"
    INDEX 01 04:48:30
  TRACK 03 AUDIO
    TITLE "Failed"
    PERFORMER "reAdjust"
    INDEX 01 09:33:45
  TRACK 04 AUDIO
    TITLE "Strong"
    PERFORMER "reAdjust"
    INDEX 01 15:08:48
  TRACK 05 AUDIO
    TITLE "Dead Whore"
    PERFORMER "reAdjust"
    INDEX 01 19:58:58
  TRACK 06 AUDIO
    TITLE "Stop The Sequence"
    PERFORMER "reAdjust"
    INDEX 01 25:29:14
  TRACK 07 AUDIO
    TITLE "Army Of Bastards"
    PERFORMER "reAdjust"
    INDEX 01 30:31:58
  TRACK 08 AUDIO
    TITLE "Lost"
    PERFORMER "reAdjust"
    INDEX 01 34:57:37
  TRACK 09 AUDIO
    TITLE "Brilliant Brutal"
    PERFORMER "reAdjust"
    INDEX 01 38:50:12
  TRACK 10 AUDIO
    TITLE "What Will Happen"
    PERFORMER "reAdjust"
    INDEX 01 43:38:35
  TRACK 11 AUDIO
    TITLE "Rape Your God (Remix by Dolls Of Pain)"
    PERFORMER "reAdjust"
    INDEX 01 48:58:44
  TRACK 12 AUDIO
    TITLE "Failed (Remix by Incubite)"
    PERFORMER "reAdjust"
    INDEX 01 54:17:25
  TRACK 13 AUDIO
    TITLE "Rape Your God (Remix by Disturbance Factor)"
    PERFORMER "reAdjust"
    INDEX 01 58:25:19
  TRACK 14 AUDIO
    TITLE "Failed (Remix by Stereomotion)"
    PERFORMER "reAdjust"
    INDEX 01 63:27:69
Код:
[url=https://fastpic.ru/view/27/2011/0917/59cccd2910143d97d9f3cc63ecb6febf.jpg.html][img]http://i27.fastpic.ru/thumb/2011/0917/bf/59cccd2910143d97d9f3cc63ecb6febf.jpeg[/img][/url][url=https://fastpic.ru/view/29/2011/0917/4784c16c126f8c23d0a5b7d0081a23ee.jpg.html][img]http://i29.fastpic.ru/thumb/2011/0917/ee/4784c16c126f8c23d0a5b7d0081a23ee.jpeg[/img][/url][url=https://fastpic.ru/view/30/2011/0917/aedb6ba3a634ac6bc7761f781eafc1a5.jpg.html][img]http://i30.fastpic.ru/thumb/2011/0917/a5/aedb6ba3a634ac6bc7761f781eafc1a5.jpeg[/img][/url][url=https://fastpic.ru/view/31/2011/0917/1c9a348966c9577883d6d76a2f3aee1d.jpg.html][img]http://i31.fastpic.ru/thumb/2011/0917/1d/1c9a348966c9577883d6d76a2f3aee1d.jpeg[/img][/url]
Выражаю благодарность kergarn`у за HQ scans!
Правила, инструкции, FAQ!!!
Торрент  Добавлен [26 июн 2020, 20:41] Скачать торрент Магнет ссылка
Скачать торрент
[ Размер 20.04 КБ / Просмотров 5 ]

Статус
Проверен 
 
Размер  485.57 МБ
Приватный: Нет (DHT включён)
.torrent скачан  0
 


     Отправить личное сообщение
   
Страница 1 из 1
Показать сообщения за:  Поле сортировки  
Начать новую тему Ответить на тему


Сейчас этот форум просматривают: нет зарегистрированных пользователей и гости: 0


Вы не можете начинать темы
Вы не можете отвечать на сообщения
Вы не можете редактировать свои сообщения
Вы не можете удалять свои сообщения
Вы не можете добавлять вложения

Перейти:  
cron