Начать новую тему Ответить на тему
Статистика раздачи
Размер: 370.95 МБ | Добавлен: 26 июн 2020, 17:33 | Скачали: 0
Сидеров: 0  [0 байт/сек]    Личеров: 0  [0 байт/сек]
Пред. тема | След. тема 

Автор
Сообщение

СообщениеДобавлено: 26 июн 2020, 17:33 

Ответить с цитатой 

Rabia Sorda - Noise Diary
Жанр: EBM, Electro, Industrial
Год выпуска диска: 2009
Производитель диска: Germany
Аудио кодек: FLAC
Тип рипа: tracks+.cue
Продолжительность: 49:53
Трэклист:
1 First Page 0:31
2 Out Of Control 4:25
3 Heart Eating Crows 4:37
4 Get Your Overdose 4:20
5 Burning House 3:10
6 Monkeyland 4:06
7 Radio Paranoia 4:44
8 Mirrors And Knives 4:42
9 NME 3:57
10 Money Talks (And Rots) 5:36
11 A World On Fire 4:33
12 This Is The End 5:12
Доп. информация: Источник: CD-R
Код:
Exact Audio Copy V0.99 prebeta 5 from 4. May 2009
EAC extraction logfile from 28. June 2010, 20:03
Rabia Sorda / Noise Diary
Used drive  : PIONEER DVD-RW  DVR-216D   Adapter: 0  ID: 3
Read mode               : Secure
Utilize accurate stream : Yes
Defeat audio cache      : Yes
Make use of C2 pointers : No
Read offset correction                      : 96
Overread into Lead-In and Lead-Out          : No
Fill up missing offset samples with silence : Yes
Delete leading and trailing silent blocks   : No
Null samples used in CRC calculations       : Yes
Used interface                              : Native Win32 interface for Win NT & 2000
Gap handling                                : Appended to previous track
Used output format              : User Defined Encoder
Selected bitrate                : 1024 kBit/s
Quality                         : High
Add ID3 tag                     : No
Command line compressor         : C:\Program Files (x86)\Exact Audio Copy\Flac\flac.exe
Additional command line options : -8 -V -T "ARTIST=%a" -T "TITLE=%t" -T "ALBUM=%g" -T "DATE=%y" -T "TRACKNUMBER=%n" -T "GENRE=%m" -T "COMMENT=EAC FLAC -8" %s
TOC of the extracted CD
     Track |   Start  |  Length  | Start sector | End sector
    ---------------------------------------------------------
        1  |  0:00.00 |  0:31.58 |         0    |     2382
        2  |  0:31.58 |  4:25.59 |      2383    |    22316
        3  |  4:57.42 |  4:37.71 |     22317    |    43162
        4  |  9:35.38 |  4:20.47 |     43163    |    62709
        5  | 13:56.10 |  3:10.33 |     62710    |    76992
        6  | 17:06.43 |  4:06.59 |     76993    |    95501
        7  | 21:13.27 |  4:44.10 |     95502    |   116811
        8  | 25:57.37 |  4:42.74 |    116812    |   138035
        9  | 30:40.36 |  3:57.44 |    138036    |   155854
       10  | 34:38.05 |  5:36.06 |    155855    |   181060
       11  | 40:14.11 |  4:33.65 |    181061    |   201600
       12  | 44:48.01 |  5:12.21 |    201601    |   225021
Track  1
     Filename I:\Audio\Rabia Sorda - Noise Diary\Tracks\01. Rabia Sorda – First Page.wav
     Pre-gap length  0:00:02.00
     Peak level 68.4 %
     Track quality 100.0 %
     Test CRC 0B08A7EF
     Copy CRC 0B08A7EF
     Track not present in AccurateRip database
     Copy OK
Track  2
     Filename I:\Audio\Rabia Sorda - Noise Diary\Tracks\02. Rabia Sorda – Out Of Control.wav
     Peak level 98.4 %
     Track quality 100.0 %
     Test CRC E39C2CE5
     Copy CRC E39C2CE5
     Track not present in AccurateRip database
     Copy OK
Track  3
     Filename I:\Audio\Rabia Sorda - Noise Diary\Tracks\03. Rabia Sorda – Heart Eating Crows.wav
     Peak level 98.4 %
     Track quality 99.9 %
     Test CRC 87E248E2
     Copy CRC 87E248E2
     Track not present in AccurateRip database
     Copy OK
Track  4
     Filename I:\Audio\Rabia Sorda - Noise Diary\Tracks\04. Rabia Sorda – Get Your Overdose.wav
     Peak level 99.4 %
     Track quality 100.0 %
     Test CRC 69AB5FD8
     Copy CRC 69AB5FD8
     Track not present in AccurateRip database
     Copy OK
Track  5
     Filename I:\Audio\Rabia Sorda - Noise Diary\Tracks\05. Rabia Sorda – Burning House.wav
     Peak level 98.7 %
     Track quality 100.0 %
     Test CRC DE6FD6EE
     Copy CRC DE6FD6EE
     Track not present in AccurateRip database
     Copy OK
Track  6
     Filename I:\Audio\Rabia Sorda - Noise Diary\Tracks\06. Rabia Sorda – Monkeyland.wav
     Peak level 99.0 %
     Track quality 100.0 %
     Test CRC 9886E858
     Copy CRC 9886E858
     Track not present in AccurateRip database
     Copy OK
Track  7
     Filename I:\Audio\Rabia Sorda - Noise Diary\Tracks\07. Rabia Sorda – Radio Paranoia.wav
     Peak level 98.8 %
     Track quality 100.0 %
     Test CRC C7B52BB4
     Copy CRC C7B52BB4
     Track not present in AccurateRip database
     Copy OK
Track  8
     Filename I:\Audio\Rabia Sorda - Noise Diary\Tracks\08. Rabia Sorda – Mirrors and Knives.wav
     Peak level 99.5 %
     Track quality 100.0 %
     Test CRC 4E78CAB2
     Copy CRC 4E78CAB2
     Track not present in AccurateRip database
     Copy OK
Track  9
     Filename I:\Audio\Rabia Sorda - Noise Diary\Tracks\09. Rabia Sorda – NME.wav
     Peak level 98.4 %
     Track quality 100.0 %
     Test CRC D74ABC24
     Copy CRC D74ABC24
     Track not present in AccurateRip database
     Copy OK
Track 10
     Filename I:\Audio\Rabia Sorda - Noise Diary\Tracks\10. Rabia Sorda – Money Talks (and Rots).wav
     Peak level 99.4 %
     Track quality 100.0 %
     Test CRC 716360B0
     Copy CRC 716360B0
     Track not present in AccurateRip database
     Copy OK
Track 11
     Filename I:\Audio\Rabia Sorda - Noise Diary\Tracks\11. Rabia Sorda – A World on Fire.wav
     Peak level 99.9 %
     Track quality 100.0 %
     Test CRC 2489FB5A
     Copy CRC 2489FB5A
     Track not present in AccurateRip database
     Copy OK
Track 12
     Filename I:\Audio\Rabia Sorda - Noise Diary\Tracks\12. Rabia Sorda – This is The End.wav
     Peak level 99.7 %
     Track quality 100.0 %
     Test CRC D3BA7DB3
     Copy CRC D3BA7DB3
     Track not present in AccurateRip database
     Copy OK
None of the tracks are present in the AccurateRip database
No errors occurred
End of status report
Код:
REM GENRE Industrial
REM DATE 2009
REM DISCID A70BB80C
REM COMMENT "ExactAudioCopy v0.99pb5"
PERFORMER "Rabia Sorda"
TITLE "Noise Diary"
FILE "01. Rabia Sorda – First Page.wav" WAVE
  TRACK 01 AUDIO
    TITLE "First Page"
    PERFORMER "Rabia Sorda"
    INDEX 01 00:00:00
FILE "02. Rabia Sorda – Out Of Control.wav" WAVE
  TRACK 02 AUDIO
    TITLE "Out Of Control"
    PERFORMER "Rabia Sorda"
    INDEX 01 00:00:00
FILE "03. Rabia Sorda – Heart Eating Crows.wav" WAVE
  TRACK 03 AUDIO
    TITLE "Heart Eating Crows"
    PERFORMER "Rabia Sorda"
    INDEX 01 00:00:00
FILE "04. Rabia Sorda – Get Your Overdose.wav" WAVE
  TRACK 04 AUDIO
    TITLE "Get Your Overdose"
    PERFORMER "Rabia Sorda"
    INDEX 01 00:00:00
FILE "05. Rabia Sorda – Burning House.wav" WAVE
  TRACK 05 AUDIO
    TITLE "Burning House"
    PERFORMER "Rabia Sorda"
    INDEX 01 00:00:00
FILE "06. Rabia Sorda – Monkeyland.wav" WAVE
  TRACK 06 AUDIO
    TITLE "Monkeyland"
    PERFORMER "Rabia Sorda"
    INDEX 01 00:00:00
FILE "07. Rabia Sorda – Radio Paranoia.wav" WAVE
  TRACK 07 AUDIO
    TITLE "Radio Paranoia"
    PERFORMER "Rabia Sorda"
    INDEX 01 00:00:00
FILE "08. Rabia Sorda – Mirrors and Knives.wav" WAVE
  TRACK 08 AUDIO
    TITLE "Mirrors and Knives"
    PERFORMER "Rabia Sorda"
    INDEX 01 00:00:00
FILE "09. Rabia Sorda – NME.wav" WAVE
  TRACK 09 AUDIO
    TITLE "NME"
    PERFORMER "Rabia Sorda"
    INDEX 01 00:00:00
FILE "10. Rabia Sorda – Money Talks (and Rots).wav" WAVE
  TRACK 10 AUDIO
    TITLE "Money Talks (and Rots)"
    PERFORMER "Rabia Sorda"
    INDEX 01 00:00:00
FILE "11. Rabia Sorda – A World on Fire.wav" WAVE
  TRACK 11 AUDIO
    TITLE "A World on Fire"
    PERFORMER "Rabia Sorda"
    INDEX 01 00:00:00
FILE "12. Rabia Sorda – This is The End.wav" WAVE
  TRACK 12 AUDIO
    TITLE "This is The End"
    PERFORMER "Rabia Sorda"
    INDEX 01 00:00:00
Правила, инструкции, FAQ!!!
Торрент  Добавлен [26 июн 2020, 17:33] Скачать торрент Магнет ссылка
Скачать торрент
[ Размер 16.22 КБ / Просмотров 7 ]

Статус
Проверен 
 
Размер  370.95 МБ
Приватный: Нет (DHT включён)
.torrent скачан  0
 


     Отправить личное сообщение
   
Страница 1 из 1
Показать сообщения за:  Поле сортировки  
Начать новую тему Ответить на тему


Сейчас этот форум просматривают: нет зарегистрированных пользователей и гости: 0


Вы не можете начинать темы
Вы не можете отвечать на сообщения
Вы не можете редактировать свои сообщения
Вы не можете удалять свои сообщения
Вы не можете добавлять вложения

Перейти:  
cron