Начать новую тему Ответить на тему
Статистика раздачи
Размер: 874.06 МБ | Добавлен: 26 июн 2020, 20:02 | Скачали: 0
Сидеров: 0  [0 байт/сек]    Личеров: 0  [0 байт/сек]
Пред. тема | След. тема 

Автор
Сообщение

СообщениеДобавлено: 26 июн 2020, 20:02 

Ответить с цитатой 

Rabia Sorda - Hotel Suicide



Жанр: EBM | Electro | Industrial
Носитель: CD
Год издания: 2013
Издатель (лейбл): Out Of Line
Номер по каталогу: OUT 646 / 647
Страна исполнителя (группы): Mexico
Аудиокодек: FLAC (*.flac)
Тип рипа: image+.cue
Битрейт аудио: lossless
Продолжительность: 01:46:12
Источник (релизер): termoflex
Наличие сканов в содержимом раздачи: да
Треклист:
01. Indestructible [00:04:15]
02. Turbulence [00:04:01]
03. Deaf [00:03:52]
04. Abwesend [00:03:16]
05. Hotel Suicide [00:03:49]
06. Dibujando El Veneno [00:01:33]
07. Eye M The Blacksheep [00:04:33]
08. Somewhere Along The Road [00:03:24]
09. Marionette [00:04:33]
10. Abuse Me [00:03:34]
11. Killing Words [00:04:33]
12. Noviembre Arde [00:05:44]


Код:
Exact Audio Copy V1.0 beta 3 from 29. August 2011
Отчёт EAC об извлечении, выполненном 22. декабря 2013, 10:08
Rabia Sorda / Hotel Suicide
Дисковод: PIONEER DVD-RW  DVR-XD10   Adapter: 1  ID: 0
Режим чтения                 : Достоверность
Использование точного потока : Да
Отключение кэша аудио        : Да
Использование указателей C2  : Нет
Коррекция смещения при чтении                     : 96
Способность читать области Lead-in и Lead-out     : Нет
Заполнение пропущенных сэмплов тишиной            : Да
Удаление блоков с тишиной в начале и конце        : Нет
При вычислениях CRC использовались нулевые сэмплы : Да
Интерфейс                                         : Встроенный Win32-интерфейс для Win NT/2000
Выходной формат          : Пользовательский кодировщик
Выбранный битрейт        : 1024 kBit/s
Качество                 : Высокий
Добавление ID3-тега      : Нет
Утилита сжатия           : C:\Program Files (x86)\Exact Audio Copy\FLAC\FLAC.EXE
Дополнительные параметры : -V -8 -T "Date=%year%" -T "Genre=%genre%" -T "Comment=ripped by termoflex" %source%
TOC извлечённого CD
     Трек |   Старт  | Длительность | Начальный сектор | Конечный сектор
    ---------------------------------------------------------------------
       1  |  0:00.00 |    4:17.40   |           0      |      19314
       2  |  4:17.40 |    4:03.27   |       19315      |      37566
       3  |  8:20.67 |    3:54.43   |       37567      |      55159
       4  | 12:15.35 |    3:18.17   |       55160      |      70026
       5  | 15:33.52 |    3:51.22   |       70027      |      87373
       6  | 19:24.74 |    1:35.66   |       87374      |      94564
       7  | 21:00.65 |    4:35.18   |       94565      |     115207
       8  | 25:36.08 |    3:26.63   |      115208      |     130720
       9  | 29:02.71 |    4:35.06   |      130721      |     151351
      10  | 33:38.02 |    3:36.33   |      151352      |     167584
      11  | 37:14.35 |    4:35.59   |      167585      |     188268
      12  | 41:50.19 |    5:46.53   |      188269      |     214271
Характеристики диапазона извлечения и сообщения об ошибках
Выбранный диапазон
     Имя файла C:\Users\HP\Music\Rabia Sorda - Hotel Suicide.wav
     Пиковый уровень 99.9 %
     Скорость извлечения 4.0 X
     Качество диапазона 100.0 %
     CRC теста DD2D3575
     CRC копии DD2D3575
     Копирование... OK
Ошибок не произошло
AccurateRip: сводка
Трек  1  отсутствует в базе данных
Трек  2  отсутствует в базе данных
Трек  3  отсутствует в базе данных
Трек  4  отсутствует в базе данных
Трек  5  отсутствует в базе данных
Трек  6  отсутствует в базе данных
Трек  7  отсутствует в базе данных
Трек  8  отсутствует в базе данных
Трек  9  отсутствует в базе данных
Трек 10  отсутствует в базе данных
Трек 11  отсутствует в базе данных
Трек 12  отсутствует в базе данных
Ни одного трека нет в базе AccurateRip
Конец отчёта
---- CUETools DB Plugin V2.1.4
[CTDB TOCID: obxF9IjLrR4efMcWbropQhxR5TQ-] disk not present in database
Submit result: obxF9IjLrR4efMcWbropQhxR5TQ- has been uploaded
==== Контрольная сумма отчёта 71E09294F981496FD0269B7E16D39D84413567C48FFAAF7D3D7B1E3EA8097FAA ====
Код:
REM GENRE Electro-Industrial
REM DATE 2013
REM DISCID 900B280C
REM COMMENT "ExactAudioCopy v1.0b3"
PERFORMER "Rabia Sorda"
TITLE "Hotel Suicide"
FILE "Rabia Sorda - Hotel Suicide.flac" WAVE
  TRACK 01 AUDIO
    TITLE "Indestructible"
    PERFORMER "Rabia Sorda"
    ISRC DEBZ71300579
    INDEX 01 00:00:00
  TRACK 02 AUDIO
    TITLE "Turbulence"
    PERFORMER "Rabia Sorda"
    ISRC DEBZ71300580
    INDEX 00 04:15:40
    INDEX 01 04:17:40
  TRACK 03 AUDIO
    TITLE "Deaf"
    PERFORMER "Rabia Sorda"
    ISRC DEBZ71300581
    INDEX 00 08:18:67
    INDEX 01 08:20:67
  TRACK 04 AUDIO
    TITLE "Abwesend"
    PERFORMER "Rabia Sorda"
    ISRC DEBZ71300582
    INDEX 00 12:13:35
    INDEX 01 12:15:35
  TRACK 05 AUDIO
    TITLE "Hotel Suicide"
    PERFORMER "Rabia Sorda"
    ISRC DEBZ71300583
    INDEX 00 15:31:52
    INDEX 01 15:33:52
  TRACK 06 AUDIO
    TITLE "Dibujando El Veneno"
    PERFORMER "Rabia Sorda"
    ISRC DEBZ71300584
    INDEX 00 19:22:74
    INDEX 01 19:24:74
  TRACK 07 AUDIO
    TITLE "Eye M The Blacksheep"
    PERFORMER "Rabia Sorda"
    ISRC DEBZ71300585
    INDEX 00 20:58:65
    INDEX 01 21:00:65
  TRACK 08 AUDIO
    TITLE "Somewhere Along The Road"
    PERFORMER "Rabia Sorda"
    ISRC DEBZ71300586
    INDEX 00 25:34:08
    INDEX 01 25:36:08
  TRACK 09 AUDIO
    TITLE "Marionette"
    PERFORMER "Rabia Sorda"
    ISRC DEBZ71300587
    INDEX 00 29:00:71
    INDEX 01 29:02:71
  TRACK 10 AUDIO
    TITLE "Abuse Me"
    PERFORMER "Rabia Sorda"
    ISRC DEBZ71300588
    INDEX 00 33:36:02
    INDEX 01 33:38:02
  TRACK 11 AUDIO
    TITLE "Killing Words"
    PERFORMER "Rabia Sorda"
    ISRC DEBZ71300589
    INDEX 00 37:12:35
    INDEX 01 37:14:35
  TRACK 12 AUDIO
    TITLE "Noviembre Arde"
    PERFORMER "Rabia Sorda"
    ISRC DEBZ71300590
    INDEX 00 41:48:19
    INDEX 01 41:50:19
Код:
-----------------------
DON'T MODIFY THIS FILE
-----------------------
PERFORMER: auCDtect Task Manager, ver. 1.5.1RC4 build 1.5.1.5
Copyright (c) 2008-2010 y-soft. All rights reserved
[url=http://y-soft.org]http://y-soft.org[/url]
ANALYZER: auCDtect: CD records authenticity detector, version 0.8.2
Copyright (c) 2004 Oleg Berngardt. All rights reserved.
Copyright (c) 2004 Alexander Djourik. All rights reserved.
FILE: Rabia Sorda - Hotel Suicide.flac
  Size: 374017645 Hash: FAC93C5FF4C905F098FD6993F62E4F45 Accuracy: -m0
  Conclusion: CDDA 100%
  Signature: 6385548DC0821D36B539BCB29D6448C8C6BBEB19
Треклист:
01. Morbid Circus [00:03:20]
02. Two Bullets [00:04:32]
03. Hotel Suicide (Aesthetic Perfection Remix) [00:04:07]
04. Indestructible (Ostfront Remix) [00:02:59]
05. Somewhere Along The Road (Formalin Remix) [00:04:45]
06. Turbulence (Forgotten Sunrise Remix) [00:05:02]
07. Deaf (Terrolokaust Remix) [00:03:55]
08. Out Of Control (Live In Leipzig) [00:04:50]
09. Radio Paranoia (Live In Liepzig) [00:04:57]
10. Money Talks (And Roots) (Live In Leipzig) [00:04:38]
11. Save Me From My Curse (Live In Leipzig) [00:04:53]
12. Eye M The Blacksheep (Live In Leipzig) [00:04:40]
13. Walking On Nails (Live In Leipzig) [00:06:05]


Код:
Exact Audio Copy V1.0 beta 3 from 29. August 2011
Отчёт EAC об извлечении, выполненном 22. декабря 2013, 11:08
Rabia Sorda / Room 13
Дисковод: PIONEER DVD-RW  DVR-XD10   Adapter: 1  ID: 0
Режим чтения                 : Достоверность
Использование точного потока : Да
Отключение кэша аудио        : Да
Использование указателей C2  : Нет
Коррекция смещения при чтении                     : 96
Способность читать области Lead-in и Lead-out     : Нет
Заполнение пропущенных сэмплов тишиной            : Да
Удаление блоков с тишиной в начале и конце        : Нет
При вычислениях CRC использовались нулевые сэмплы : Да
Интерфейс                                         : Встроенный Win32-интерфейс для Win NT/2000
Выходной формат          : Пользовательский кодировщик
Выбранный битрейт        : 1024 kBit/s
Качество                 : Высокий
Добавление ID3-тега      : Нет
Утилита сжатия           : C:\Program Files (x86)\Exact Audio Copy\FLAC\FLAC.EXE
Дополнительные параметры : -V -8 -T "Date=%year%" -T "Genre=%genre%" -T "Comment=ripped by termoflex" %source%
TOC извлечённого CD
     Трек |   Старт  | Длительность | Начальный сектор | Конечный сектор
    ---------------------------------------------------------------------
       1  |  0:00.00 |    3:20.66   |           0      |      15065
       2  |  3:20.66 |    4:32.48   |       15066      |      35513
       3  |  7:53.39 |    4:07.52   |       35514      |      54090
       4  | 12:01.16 |    2:59.73   |       54091      |      67588
       5  | 15:01.14 |    4:45.34   |       67589      |      88997
       6  | 19:46.48 |    5:02.22   |       88998      |     111669
       7  | 24:48.70 |    3:55.18   |      111670      |     129312
       8  | 28:44.13 |    4:50.16   |      129313      |     151078
       9  | 33:34.29 |    4:57.20   |      151079      |     173373
      10  | 38:31.49 |    4:38.38   |      173374      |     194261
      11  | 43:10.12 |    4:53.23   |      194262      |     216259
      12  | 48:03.35 |    4:40.62   |      216260      |     237321
      13  | 52:44.22 |    6:05.74   |      237322      |     264770
Характеристики диапазона извлечения и сообщения об ошибках
Выбранный диапазон
     Имя файла C:\Users\HP\Music\Rabia Sorda - Room 13.wav
     Пиковый уровень 100.0 %
     Скорость извлечения 4.2 X
     Качество диапазона 100.0 %
     CRC теста A152DE2C
     CRC копии A152DE2C
     Копирование... OK
Ошибок не произошло
AccurateRip: сводка
Трек  1  отсутствует в базе данных
Трек  2  отсутствует в базе данных
Трек  3  отсутствует в базе данных
Трек  4  отсутствует в базе данных
Трек  5  отсутствует в базе данных
Трек  6  отсутствует в базе данных
Трек  7  отсутствует в базе данных
Трек  8  отсутствует в базе данных
Трек  9  отсутствует в базе данных
Трек 10  отсутствует в базе данных
Трек 11  отсутствует в базе данных
Трек 12  отсутствует в базе данных
Трек 13  отсутствует в базе данных
Ни одного трека нет в базе AccurateRip
Конец отчёта
---- CUETools DB Plugin V2.1.4
[CTDB TOCID: z8oQ4DOcTv9j4.IQtux.oVyXAVU-] disk not present in database
Submit result: z8oQ4DOcTv9j4.IQtux.oVyXAVU- has been uploaded
==== Контрольная сумма отчёта 65144B583F630EE3C2AA62DFA3AF5E2AEB2B6FE0E15701F346FD99BC072B6BFD ====
Код:
REM GENRE Electro-Industrial
REM DATE 2013
REM DISCID A90DCA0D
REM COMMENT "ExactAudioCopy v1.0b3"
CATALOG 4260158836470
PERFORMER "Rabia Sorda"
TITLE "Room 13"
FILE "Rabia Sorda - Room 13.flac" WAVE
  TRACK 01 AUDIO
    TITLE "Morbid Circus"
    PERFORMER "Rabia Sorda"
    ISRC DEBZ71300591
    INDEX 01 00:00:00
  TRACK 02 AUDIO
    TITLE "Two Bullets"
    PERFORMER "Rabia Sorda"
    ISRC DEBZ71300592
    INDEX 01 03:20:66
  TRACK 03 AUDIO
    TITLE "Hotel Suicide (Aesthetic Perfection Remix)"
    PERFORMER "Rabia Sorda"
    ISRC DEBZ71300593
    INDEX 01 07:53:39
  TRACK 04 AUDIO
    TITLE "Indestructible (Ostfront Remix)"
    PERFORMER "Rabia Sorda"
    ISRC DEBZ71300594
    INDEX 01 12:01:16
  TRACK 05 AUDIO
    TITLE "Somewhere Along The Road (Formalin Remix)"
    PERFORMER "Rabia Sorda"
    ISRC DEBZ71300595
    INDEX 01 15:01:14
  TRACK 06 AUDIO
    TITLE "Turbulence (Forgotten Sunrise Remix)"
    PERFORMER "Rabia Sorda"
    ISRC DEBZ71300596
    INDEX 01 19:46:48
  TRACK 07 AUDIO
    TITLE "Deaf (Terrolokaust Remix)"
    PERFORMER "Rabia Sorda"
    ISRC DEBZ71300597
    INDEX 01 24:48:70
  TRACK 08 AUDIO
    TITLE "Out Of Control (Live In Leipzig)"
    PERFORMER "Rabia Sorda"
    INDEX 01 28:44:13
  TRACK 09 AUDIO
    TITLE "Radio Paranoia (Live In Liepzig)"
    PERFORMER "Rabia Sorda"
    ISRC DEBZ71300599
    INDEX 01 33:34:29
  TRACK 10 AUDIO
    TITLE "Money Talks (And Roots) (Live In Leipzig)"
    PERFORMER "Rabia Sorda"
    ISRC DEBZ71300600
    INDEX 01 38:31:49
  TRACK 11 AUDIO
    TITLE "Save Me From My Curse (Live In Leipzig)"
    PERFORMER "Rabia Sorda"
    ISRC DEBZ71300601
    INDEX 01 43:10:12
  TRACK 12 AUDIO
    TITLE "Eye M The Blacksheep (Live In Leipzig)"
    PERFORMER "Rabia Sorda"
    ISRC DEBZ71300602
    INDEX 01 48:03:35
  TRACK 13 AUDIO
    TITLE "Walking On Nails (Live In Leipzig)"
    PERFORMER "Rabia Sorda"
    ISRC DEBZ71300603
    INDEX 01 52:44:22
Код:
-----------------------
DON'T MODIFY THIS FILE
-----------------------
PERFORMER: auCDtect Task Manager, ver. 1.5.1RC4 build 1.5.1.5
Copyright (c) 2008-2010 y-soft. All rights reserved
[url=http://y-soft.org]http://y-soft.org[/url]
ANALYZER: auCDtect: CD records authenticity detector, version 0.8.2
Copyright (c) 2004 Oleg Berngardt. All rights reserved.
Copyright (c) 2004 Alexander Djourik. All rights reserved.
FILE: Rabia Sorda - Room 13.flac
  Size: 432678335 Hash: 369F6BE37B814A97DA9422C063AC04C9 Accuracy: -m0
  Conclusion: CDDA 100%
  Signature: EC459DFF4F225751C3972667BD6A82E1DF375B77
Правила, инструкции, FAQ!!!
Торрент  Добавлен [26 июн 2020, 20:02] Скачать торрент Магнет ссылка
Скачать торрент
[ Размер 18.99 КБ / Просмотров 13 ]

Статус
Проверен 
 
Размер  874.06 МБ
Приватный: Нет (DHT включён)
.torrent скачан  0
 


     Отправить личное сообщение
   
Страница 1 из 1
Показать сообщения за:  Поле сортировки  
Начать новую тему Ответить на тему


Сейчас этот форум просматривают: нет зарегистрированных пользователей и гости: 0


Вы не можете начинать темы
Вы не можете отвечать на сообщения
Вы не можете редактировать свои сообщения
Вы не можете удалять свои сообщения
Вы не можете добавлять вложения

Перейти:  
cron