Начать новую тему Ответить на тему
Статистика раздачи
Размер: 399.67 МБ | Добавлен: 26 июн 2020, 19:41 | Скачали: 0
Сидеров: 0  [0 байт/сек]    Личеров: 0  [0 байт/сек]
Пред. тема | След. тема 

Автор
Сообщение

СообщениеДобавлено: 26 июн 2020, 19:41 

Ответить с цитатой 

Pzycho bitch - Electrolicious
Жанр: EBM, Electro, Industrial
Год выпуска диска: 2006
Производитель диска: Germany
Аудио кодек: FLAC
Тип рипа: tracks
Битрейт аудио: lossless
Продолжительность: 00:52:10

Трэклист
:

1 Electrolicious (3:39)
2 Cold Comfort (4:11)
3 Strom Aus Fantasie (5:28)
4 Go Pussy Go (3:46)
5 Whisper (4:26)
6 Eyes Off! (5:04)
7 Pussy Gang (vs. Electrixx) (4:25)
8 Lotus Eater (3:26)
9 Maschinerie (4:26)
10 Pzycho-Pop-Groove (5:00)
11 Atem-Heart (4:02)
12 Method Of Mêlée (3:49)
Код:
Exact Audio Copy V0.99 prebeta 4 from 23. January 2008
EAC extraction logfile from 11. December 2008, 20:41
Pzychobitch / Electrolicious
Used drive  : SONY    CD-RW  CRX230ED   Adapter: 1  ID: 1
Read mode               : Secure
Utilize accurate stream : Yes
Defeat audio cache      : Yes
Make use of C2 pointers : No
Read offset correction                      : 6
Overread into Lead-In and Lead-Out          : No
Fill up missing offset samples with silence : Yes
Delete leading and trailing silent blocks   : No
Null samples used in CRC calculations       : Yes
Used interface                              : Native Win32 interface for Win NT & 2000
Gap handling                                : Appended to previous track
Used output format              : User Defined Encoder
Selected bitrate                : 1024 kBit/s
Quality                         : High
Add ID3 tag                     : No
Command line compressor         : C:\Program Files\FLAC\flac.exe
Additional command line options : -V -8 -T "artist=%a" -T "title=%t" -T "album=%g" -T "date=%y" -T "tracknumber=%n" -T "genre=%m" %s
TOC of the extracted CD
     Track |   Start  |  Length  | Start sector | End sector
    ---------------------------------------------------------
        1  |  0:00.00 |  3:39.09 |         0    |    16433
        2  |  3:39.09 |  4:11.35 |     16434    |    35293
        3  |  7:50.44 |  5:28.15 |     35294    |    59908
        4  | 13:18.59 |  3:46.02 |     59909    |    76860
        5  | 17:04.61 |  4:26.04 |     76861    |    96814
        6  | 21:30.65 |  5:04.40 |     96815    |   119654
        7  | 26:35.30 |  4:25.49 |    119655    |   139578
        8  | 31:01.04 |  3:26.34 |    139579    |   155062
        9  | 34:27.38 |  4:26.29 |    155063    |   175041
       10  | 38:53.67 |  5:00.64 |    175042    |   197605
       11  | 43:54.56 |  4:02.65 |    197606    |   215820
       12  | 47:57.46 |  3:49.23 |    215821    |   233018
Track  1
     Filename G:\Music\CD\Pzychobitch\Electrolicious\Pzychobitch - 01 - Electrolicious.wav
     Pre-gap length  0:00:02.00
     Peak level 98.8 %
     Track quality 100.0 %
     Test CRC C487D0FE
     Copy CRC C487D0FE
     Accurately ripped (confidence 2)  [3376152C]
     Copy OK
Track  2
     Filename G:\Music\CD\Pzychobitch\Electrolicious\Pzychobitch - 02 - Cold Comfort.wav
     Pre-gap length  0:00:01.70
     Peak level 98.8 %
     Track quality 100.0 %
     Test CRC CF8A0C04
     Copy CRC CF8A0C04
     Accurately ripped (confidence 3)  [4DBEF6BE]
     Copy OK
Track  3
     Filename G:\Music\CD\Pzychobitch\Electrolicious\Pzychobitch - 03 - Strom aus Fantasie.wav
     Pre-gap length  0:00:01.70
     Peak level 98.8 %
     Track quality 100.0 %
     Test CRC EACD5180
     Copy CRC EACD5180
     Accurately ripped (confidence 3)  [4920CAFC]
     Copy OK
Track  4
     Filename G:\Music\CD\Pzychobitch\Electrolicious\Pzychobitch - 04 - Go Pussy Go.wav
     Pre-gap length  0:00:01.70
     Peak level 98.8 %
     Track quality 100.0 %
     Test CRC D6A16C33
     Copy CRC D6A16C33
     Accurately ripped (confidence 3)  [53419038]
     Copy OK
Track  5
     Filename G:\Music\CD\Pzychobitch\Electrolicious\Pzychobitch - 05 - Whisper.wav
     Pre-gap length  0:00:01.70
     Peak level 98.8 %
     Track quality 100.0 %
     Test CRC 8BA361BC
     Copy CRC 8BA361BC
     Accurately ripped (confidence 3)  [DBB0A207]
     Copy OK
Track  6
     Filename G:\Music\CD\Pzychobitch\Electrolicious\Pzychobitch - 06 - Eyes Off!.wav
     Pre-gap length  0:00:01.70
     Peak level 98.8 %
     Track quality 100.0 %
     Test CRC 9D987AD0
     Copy CRC 9D987AD0
     Accurately ripped (confidence 3)  [BC815AA3]
     Copy OK
Track  7
     Filename G:\Music\CD\Pzychobitch\Electrolicious\Pzychobitch - 07 - Pussy Gang.wav
     Pre-gap length  0:00:01.70
     Peak level 98.8 %
     Track quality 99.9 %
     Test CRC 9C38D5B7
     Copy CRC 9C38D5B7
     Accurately ripped (confidence 3)  [74223C28]
     Copy OK
Track  8
     Filename G:\Music\CD\Pzychobitch\Electrolicious\Pzychobitch - 08 - Lotus Eater.wav
     Pre-gap length  0:00:01.70
     Peak level 98.8 %
     Track quality 100.0 %
     Test CRC 7DEA250D
     Copy CRC 7DEA250D
     Accurately ripped (confidence 3)  [6FE9A1B3]
     Copy OK
Track  9
     Filename G:\Music\CD\Pzychobitch\Electrolicious\Pzychobitch - 09 - Maschinerie.wav
     Pre-gap length  0:00:01.70
     Peak level 98.8 %
     Track quality 100.0 %
     Test CRC 7B72870D
     Copy CRC 7B72870D
     Accurately ripped (confidence 3)  [61B4F212]
     Copy OK
Track 10
     Filename G:\Music\CD\Pzychobitch\Electrolicious\Pzychobitch - 10 - Pzycho-Pop-Groove.wav
     Pre-gap length  0:00:01.70
     Peak level 98.8 %
     Track quality 99.9 %
     Test CRC 2786C86D
     Copy CRC 2786C86D
     Accurately ripped (confidence 3)  [C7DEB4F3]
     Copy OK
Track 11
     Filename G:\Music\CD\Pzychobitch\Electrolicious\Pzychobitch - 11 - Atem Heart.wav
     Pre-gap length  0:00:01.70
     Peak level 98.8 %
     Track quality 100.0 %
     Test CRC E58C7060
     Copy CRC E58C7060
     Accurately ripped (confidence 3)  [1A0ECE6B]
     Copy OK
Track 12
     Filename G:\Music\CD\Pzychobitch\Electrolicious\Pzychobitch - 12 - Method of Mкlйe.wav
     Pre-gap length  0:00:01.70
     Peak level 98.8 %
     Track quality 100.0 %
     Test CRC 1B41D187
     Copy CRC 1B41D187
     Accurately ripped (confidence 3)  [3F86E2F2]
     Copy OK
All tracks accurately ripped
No errors occurred
End of status report
Код:
AUDIOCHECKER v2.0 beta (build 457) - by Dester - opdester@freemail.hu
~~~~~~~~~~~~~~~~~~~~~~~~~~~~~~~~~~
-=== НЕ РЕДАКТИРУЙТЕ ЭТОТ ФАЙЛ! ===-
Путь: ...\Pzychobitch - Electrolicious
01 -=- 01-Electrolicious.flac -=- CDDA (100%)
02 -=- 02-Cold Comfort.flac -=- CDDA (100%)
03 -=- 03-Strom Aus Fantasie.flac -=- CDDA (100%)
04 -=- 04-Go Pussy Go.flac -=- CDDA (99%)
05 -=- 05-Whisper.flac -=- CDDA (100%)
06 -=- 06-Eyes Off!.flac -=- CDDA (100%)
07 -=- 07-Pussy Gang.flac -=- CDDA (99%)
08 -=- 08-Lotus Eater.flac -=- CDDA (100%)
09 -=- 09-Maschinerie.flac -=- CDDA (100%)
10 -=- 10-Pzycho-Pop-Groove.flac -=- CDDA (100%)
11 -=- 11-Atem Heart.flac -=- CDDA (100%)
12 -=- 12-Method Of Melee.flac -=- CDDA (100%)
Сводка 99,83% CDDA
246670708
Правила, инструкции, FAQ!!!
Торрент  Добавлен [26 июн 2020, 19:41] Скачать торрент Магнет ссылка
Скачать торрент
[ Размер 17.11 КБ / Просмотров 12 ]

Статус
Проверен 
 
Размер  399.67 МБ
Приватный: Нет (DHT включён)
.torrent скачан  0
 


     Отправить личное сообщение
   
Страница 1 из 1
Показать сообщения за:  Поле сортировки  
Начать новую тему Ответить на тему


Сейчас этот форум просматривают: нет зарегистрированных пользователей и гости: 0


Вы не можете начинать темы
Вы не можете отвечать на сообщения
Вы не можете редактировать свои сообщения
Вы не можете удалять свои сообщения
Вы не можете добавлять вложения

Перейти:  
cron