Начать новую тему Ответить на тему
Статистика раздачи
Размер: 1.87 ГБ | Добавлен: 26 июн 2020, 17:48 | Скачали: 0
Сидеров: 0  [0 байт/сек]    Личеров: 0  [0 байт/сек]
Пред. тема | След. тема 

Автор
Сообщение

СообщениеДобавлено: 26 июн 2020, 17:48 

Ответить с цитатой 

Grausame Tochter || Дискография 2011-2014

Источник new-team | Жанр: EBM, electro, industrial, punk, neoclassic | Страна: Germany | Годы: 2011-2014 | Издатель: Dark dimensions/Scanner | Аудиокодек: FLAC (*.flac) | Тип рипа: image .cue | Битрейт: lossless | Продолжительность: 3:56:00 | Сканы: да
"Жестокая дочерь" была основана в 2009 году в Гамбурге силами 2 человек: Аранеи Пил (вокал) и Грегора Хеннинга (ударные, микширование). Позже к ним присоединятся Era Kreuz (басс-гитара), Bojana Tadic (виолончель), Valeria Ereth (гитара), Zou Lou (бэк-вокал), Annie Fiore (бэк-вокал) и Arnaud Vansteenkiste (ударные). В 2010 году группа начинает давать концерты, которые выделяются BDSM-тематикой, а также, порой, полным оголением некоторых выступающих и различными перформансами. Так же Grausame T öchter часто приглашает на свои концерты девушек, выступающих на сцене в роли музыкантов или работающих над художественной частью.


#777Жанр: EBM, electro, industrial, punk | Год издания: 2011 | Издатель: Dark dimensions/Scanner | Номер по каталогу: SCAN 091 Формат издания: CD, Album | Аудиокодек: FLAC (*.flac) | Тип рипа: image .cue (secure, test & copy) | Битрейт аудио: lossless | Продолжительность: 0:57:42.53Треклист:
01. Untergang
02. Mephisto
03. Beleidigte Engel
04. Bis das Blut fliessen
05. Freundin
06. Wie eine Schlange
07. Liebestod
08. Drecksau
09. Mein Messer
10. Warum nur?
Код:
Exact Audio Copy V1.0 beta 3 from 29. August 2011
Отчёт EAC об извлечении, выполненном 16. марта 2013, 19:41
Grausame Tochter / Mein Eigentliches Element
Дисковод: hp      DVD-RAM UJ8B1   Adapter: 0  ID: 2
Режим чтения                 : Достоверность
Использование точного потока : Да
Отключение кэша аудио        : Да
Использование указателей C2  : Нет
Коррекция смещения при чтении                     : 6
Способность читать области Lead-in и Lead-out     : Нет
Заполнение пропущенных сэмплов тишиной            : Да
Удаление блоков с тишиной в начале и конце        : Нет
При вычислениях CRC использовались нулевые сэмплы : Да
Интерфейс                                         : Встроенный Win32-интерфейс для Win NT/2000
Выходной формат          : Пользовательский кодировщик
Выбранный битрейт        : 1024 kBit/s
Качество                 : Высокий
Добавление ID3-тега      : Нет
Утилита сжатия           : C:\Program Files (x86)\Exact Audio Copy\FLAC\FLAC.EXE
Дополнительные параметры : -V -8 -T "Date=%year%" -T "Genre=%genre%" %source%
TOC извлечённого CD
     Трек |   Старт  | Длительность | Начальный сектор | Конечный сектор
    ---------------------------------------------------------------------
       1  |  0:00.00 |    4:31.24   |           0      |      20348
       2  |  4:31.24 |    5:14.09   |       20349      |      43907
       3  |  9:45.33 |    5:25.41   |       43908      |      68323
       4  | 15:10.74 |    4:23.21   |       68324      |      88069
       5  | 19:34.20 |    4:32.62   |       88070      |     108531
       6  | 24:07.07 |    5:44.46   |      108532      |     134377
       7  | 29:51.53 |    5:02.01   |      134378      |     157028
       8  | 34:53.54 |    5:15.27   |      157029      |     180680
       9  | 40:09.06 |   11:52.02   |      180681      |     234082
      10  | 52:01.08 |    5:41.45   |      234083      |     259702
Характеристики диапазона извлечения и сообщения об ошибках
Выбранный диапазон
     Имя файла C:\Users\HP\Music\Grausame Tochter - Mein Eigentliches Element.wav
     Пиковый уровень 99.4 %
     Скорость извлечения 2.1 X
     Качество диапазона 100.0 %
     CRC теста 4E3DABD8
     CRC копии 4E3DABD8
     Копирование... OK
Ошибок не произошло
AccurateRip: сводка
Трек  1  : извлечено точно (доверие 1)  [04A61529]  (AR v1)
Трек  2  : извлечено точно (доверие 1)  [73F558A8]  (AR v1)
Трек  3  : извлечено точно (доверие 1)  [64FA5F9A]  (AR v1)
Трек  4  : извлечено точно (доверие 1)  [1103A2AE]  (AR v1)
Трек  5  : извлечено точно (доверие 1)  [1A73A390]  (AR v1)
Трек  6  : извлечено точно (доверие 1)  [42274864]  (AR v1)
Трек  7  : извлечено точно (доверие 1)  [0220BF1C]  (AR v1)
Трек  8  : извлечено точно (доверие 1)  [B15852D5]  (AR v1)
Трек  9  : извлечено точно (доверие 1)  [A6E03633]  (AR v1)
Трек 10  : извлечено точно (доверие 1)  [FD7C05E8]  (AR v1)
Все треки извлечены точно
Конец отчёта
---- CUETools DB Plugin V2.1.4
[CTDB TOCID: CYdk_ZWR2_EQx_AFvawkujSH1cw-] disk not present in database
Submit result: CYdk_ZWR2_EQx_AFvawkujSH1cw- has been uploaded
==== Контрольная сумма отчёта BF51C59B8CC49D522A36CF544469FEC3AF965547148BFD5029158F3D73A7E05E ====
Код:
REM GENRE Industrial
REM DATE 2011
REM DISCID 840D860A
REM COMMENT ExactAudioCopy v1.0b3
PERFORMER "Grausame Tochter"
TITLE "Mein Eigentliches Element"
FILE "Grausame Tochter - Mein Eigentliches Element.flac" WAVE
  TRACK 01 AUDIO
    TITLE "Untergang"
    INDEX 01 00:00:00
  TRACK 02 AUDIO
    TITLE "Mephisto"
    INDEX 01 04:31:24
  TRACK 03 AUDIO
    TITLE "Beleidigte Engel"
    INDEX 01 09:45:33
  TRACK 04 AUDIO
    TITLE "Bis das Blut fliessen"
    INDEX 01 15:10:74
  TRACK 05 AUDIO
    TITLE "Freundin"
    INDEX 01 19:34:20
  TRACK 06 AUDIO
    TITLE "Wie eine Schlange"
    INDEX 01 24:07:07
  TRACK 07 AUDIO
    TITLE "Liebestod"
    INDEX 01 29:51:53
  TRACK 08 AUDIO
    TITLE "Drecksau"
    INDEX 01 34:53:54
  TRACK 09 AUDIO
    TITLE "Mein Messer"
    INDEX 01 40:09:06
  TRACK 10 AUDIO
    TITLE "Warum nur?"
    INDEX 01 52:01:08
#777Жанр: EBM, electro, industrial, punk | Год издания: 2012 | Издатель: Dark dimensions/Scanner | Номер по каталогу: SCAN 100 Формат издания: CD, Album | Аудиокодек: FLAC (*.flac) | Тип рипа: image .cue (secure, test & copy) | Битрейт аудио: lossless | Продолжительность: 1:09:09.17Треклист:
01. Albtraum deiner Lust
02. Blut geleckt
03. Ich darf das!
04. Liebeslied fur dich
05. Tanz fur dich
06. Luge!.mp3
07. Therapie f ür dich
08. Alles f ür dich
09. Tabu
10. Wie eine Spinne
11. Blut geleckt (reprise)
12. Rosen fur dich
13. Luge! (Straftanz remix)
14. Blut Geleckt (Schizophreniac remix)
15. Zerbrochenes Spielzeug (Familiy core remix)
Код:
Exact Audio Copy V1.0 beta 3 from 29. August 2011
Отчёт EAC об извлечении, выполненном 16. марта 2013, 21:00
Grausame Tochter / Alles Fur Dich
Дисковод: hp      DVD-RAM UJ8B1   Adapter: 0  ID: 2
Режим чтения                 : Достоверность
Использование точного потока : Да
Отключение кэша аудио        : Да
Использование указателей C2  : Нет
Коррекция смещения при чтении                     : 6
Способность читать области Lead-in и Lead-out     : Нет
Заполнение пропущенных сэмплов тишиной            : Да
Удаление блоков с тишиной в начале и конце        : Нет
При вычислениях CRC использовались нулевые сэмплы : Да
Интерфейс                                         : Встроенный Win32-интерфейс для Win NT/2000
Выходной формат          : Пользовательский кодировщик
Выбранный битрейт        : 1024 kBit/s
Качество                 : Высокий
Добавление ID3-тега      : Нет
Утилита сжатия           : C:\Program Files (x86)\Exact Audio Copy\FLAC\FLAC.EXE
Дополнительные параметры : -V -8 -T "Date=%year%" -T "Genre=%genre%" %source%
TOC извлечённого CD
     Трек |   Старт  | Длительность | Начальный сектор | Конечный сектор
    ---------------------------------------------------------------------
       1  |  0:00.00 |    4:32.26   |           0      |      20425
       2  |  4:32.26 |    4:34.06   |       20426      |      40981
       3  |  9:06.32 |    4:23.43   |       40982      |      60749
       4  | 13:30.00 |    5:07.20   |       60750      |      83794
       5  | 18:37.20 |    3:47.43   |       83795      |     100862
       6  | 22:24.63 |    4:46.23   |      100863      |     122335
       7  | 27:11.11 |    5:10.52   |      122336      |     145637
       8  | 32:21.63 |    5:10.73   |      145638      |     168960
       9  | 37:32.61 |    4:48.06   |      168961      |     190566
      10  | 42:20.67 |    4:49.26   |      190567      |     212267
      11  | 47:10.18 |    2:55.27   |      212268      |     225419
      12  | 50:05.45 |    5:06.33   |      225420      |     248402
      13  | 55:12.03 |    4:23.42   |      248403      |     268169
      14  | 59:35.45 |    5:28.11   |      268170      |     292780
      15  | 65:03.56 |    4:05.36   |      292781      |     311191
Характеристики диапазона извлечения и сообщения об ошибках
Выбранный диапазон
     Имя файла C:\Users\HP\Music\Grausame Tochter - Alles Fur Dich.wav
     Пиковый уровень 99.4 %
     Скорость извлечения 4.6 X
     Качество диапазона 100.0 %
     CRC теста 27BC5EAF
     CRC копии 27BC5EAF
     Копирование... OK
Ошибок не произошло
AccurateRip: сводка
Трек  1  отсутствует в базе данных
Трек  2  отсутствует в базе данных
Трек  3  отсутствует в базе данных
Трек  4  отсутствует в базе данных
Трек  5  отсутствует в базе данных
Трек  6  отсутствует в базе данных
Трек  7  отсутствует в базе данных
Трек  8  отсутствует в базе данных
Трек  9  отсутствует в базе данных
Трек 10  отсутствует в базе данных
Трек 11  отсутствует в базе данных
Трек 12  отсутствует в базе данных
Трек 13  отсутствует в базе данных
Трек 14  отсутствует в базе данных
Трек 15  отсутствует в базе данных
Ни одного трека нет в базе AccurateRip
Конец отчёта
---- CUETools DB Plugin V2.1.4
[CTDB TOCID: FDUo1jBtxm4qz39paPfbsCrNE0Y-] found
Submit result: FDUo1jBtxm4qz39paPfbsCrNE0Y- has been confirmed
Track | CTDB Status
  1   | (2/2) Accurately ripped
  2   | (2/2) Accurately ripped
  3   | (2/2) Accurately ripped
  4   | (2/2) Accurately ripped
  5   | (2/2) Accurately ripped
  6   | (2/2) Accurately ripped
  7   | (2/2) Accurately ripped
  8   | (2/2) Accurately ripped
  9   | (2/2) Accurately ripped
 10   | (2/2) Accurately ripped
 11   | (2/2) Accurately ripped
 12   | (2/2) Accurately ripped
 13   | (2/2) Accurately ripped
 14   | (2/2) Accurately ripped
 15   | (2/2) Accurately ripped
==== Контрольная сумма отчёта 0B75D6C480C7B27985C3895AC4B1DD42923CD4F7692B26BBF73B074BCC64B01E ====
Код:
REM GENRE Industrial
REM DATE 2012
REM DISCID C810350F
REM COMMENT ExactAudioCopy v1.0b3
PERFORMER "Grausame Tochter"
TITLE "Alles fur Dich"
FILE "Grausame Tochter - Alles fur Dich.flac" WAVE
  TRACK 01 AUDIO
    TITLE "Albtraum deiner Lust"
    INDEX 01 00:00:00
  TRACK 02 AUDIO
    TITLE "Blut gleckt"
    INDEX 01 04:32:26
  TRACK 03 AUDIO
    TITLE "Ich darf das!"
    INDEX 01 09:06:32
  TRACK 04 AUDIO
    TITLE "Liebeslied fur dich"
    INDEX 01 13:30:00
  TRACK 05 AUDIO
    TITLE "Tanz fur dich"
    INDEX 01 18:37:20
  TRACK 06 AUDIO
    TITLE "Luge!"
    INDEX 01 22:24:63
  TRACK 07 AUDIO
    TITLE "Therapie fur dich"
    INDEX 01 27:11:11
  TRACK 08 AUDIO
    TITLE "Alles fur dich"
    INDEX 01 32:21:63
  TRACK 09 AUDIO
    TITLE "Tabu"
    INDEX 01 37:32:61
  TRACK 10 AUDIO
    TITLE "Wie eine Spinne"
    INDEX 01 42:20:67
  TRACK 11 AUDIO
    TITLE "Blut geleckt (reprise)"
    INDEX 01 47:10:18
  TRACK 12 AUDIO
    TITLE "Rosen fur dich"
    INDEX 01 50:05:45
  TRACK 13 AUDIO
    TITLE "Luge (Straftanz remix)"
    INDEX 01 55:12:03
  TRACK 14 AUDIO
    TITLE "Blut Geleckt (Schizophreniac remix)"
    INDEX 01 59:35:45
  TRACK 15 AUDIO
    TITLE "Zerbrochenes Spielzeug (Familiy core remix)"
    INDEX 01 65:03:56
#777Жанр: EBM, electro, industrial, punk | Год издания: 2014 | Издатель: Dark dimensions/Scanner | Номер по каталогу: SCAN 112l Формат издания: 2CD, Album, Limited edition | Аудиокодек: FLAC (*.flac) | Тип рипа: image .cue (secure, test & copy) | Битрейт аудио: lossless | Продолжительность: 64:36 44:32
Треклист:
01. Glaube Liebe Hoffnung
02. Lust und Tod
03. Verlassen
04. Solipsismus
05. Mensch und Tier
06. Tranen in einer toten Welt
07. Ficken ist ein schlimmes Wort
08. Blutwalzer
09. Sex in Latex
10. Zukunftsvision
11. Bete und Arbeite
12. Quid pro quo
13. Wie eine Hy äne
14. Paradis
15. Ich bin Gott
Код:
Exact Audio Copy V1.0 beta 4 from 7. December 2014
EAC extraction logfile from 23. July 2015, 17:31
Grausame T öchter / Glaube Liebe Hoffnung
Used drive  : PLEXTOR BDDVDR PX-B320SA   Adapter: 4  ID: 2
Read mode               : Secure
Utilize accurate stream : Yes
Defeat audio cache      : Yes
Make use of C2 pointers : No
Read offset correction                      : 6
Overread into Lead-In and Lead-Out          : No
Fill up missing offset samples with silence : Yes
Delete leading and trailing silent blocks   : No
Null samples used in CRC calculations       : Yes
Used interface                              : Installed external ASPI interface
Used output format              : User Defined Encoder
Selected bitrate                : 896 kBit/s
Quality                         : High
Add ID3 tag                     : No
Command line compressor         : C:\Program Files\Flac\flac.exe
Additional command line options : -V -8 -T "COMMENT=ripped by DmXpert special for  СПАМ -T "Date=%year%" -T "Genre=%genre%" %source%
TOC of the extracted CD
     Track |   Start  |  Length  | Start sector | End sector
    ---------------------------------------------------------
        1  |  0:00.00 |  3:59.04 |         0    |    17928
        2  |  3:59.04 |  4:36.39 |     17929    |    38667
        3  |  8:35.43 |  4:43.50 |     38668    |    59942
        4  | 13:19.18 |  4:11.66 |     59943    |    78833
        5  | 17:31.09 |  4:06.73 |     78834    |    97356
        6  | 21:38.07 |  4:49.38 |     97357    |   119069
        7  | 26:27.45 |  4:32.70 |    119070    |   139539
        8  | 31:00.40 |  4:02.36 |    139540    |   157725
        9  | 35:03.01 |  4:12.12 |    157726    |   176637
       10  | 39:15.13 |  1:51.05 |    176638    |   184967
       11  | 41:06.18 |  5:12.46 |    184968    |   208413
       12  | 46:18.64 |  4:44.71 |    208414    |   229784
       13  | 51:03.60 |  4:28.24 |    229785    |   249908
       14  | 55:32.09 |  5:01.54 |    249909    |   272537
       15  | 60:33.63 |  4:02.33 |    272538    |   290720
Range status and errors
Selected range
     Filename D:\DmXpert for  СПАМ Tochter - Glaube Liebe Hoffnung (2015)(# SCAN 112L)\cd1\Grausame Tochter - Glaube Liebe Hoffnung.wav
     Peak level 98.8 %
     Extraction speed 8.0 X
     Range quality 100.0 %
     Test CRC 6693D371
     Copy CRC 6693D371
     Copy OK
No errors occurred
AccurateRip summary
Track  1  not present in database
Track  2  not present in database
Track  3  not present in database
Track  4  not present in database
Track  5  not present in database
Track  6  not present in database
Track  7  not present in database
Track  8  not present in database
Track  9  not present in database
Track 10  not present in database
Track 11  not present in database
Track 12  not present in database
Track 13  not present in database
Track 14  not present in database
Track 15  not present in database
None of the tracks are present in the AccurateRip database
End of status report
==== Log checksum E9A2F4A69AE54E86C19FBF5F97A3F17CBB795FD75C1EEC662BE7B08CB0E8DDA3 ====
Код:
REM DATE 2014
REM DISCID BE0F240F
REM COMMENT ExactAudioCopy v1.0b4
PERFORMER "Grausame Tochter"
TITLE "Glaube Liebe Hoffnung"
FILE "Grausame Tochter - Glaube Liebe Hoffnung.flac" WAVE
  TRACK 01 AUDIO
    TITLE "Glaube Liebe Hoffnung"
    INDEX 01 00:00:00
  TRACK 02 AUDIO
    TITLE "Lust und Tod"
    INDEX 00 03:57:04
    INDEX 01 03:59:04
  TRACK 03 AUDIO
    TITLE "Verlassen"
    INDEX 00 08:33:43
    INDEX 01 08:35:43
  TRACK 04 AUDIO
    TITLE "Solipsismus"
    INDEX 00 13:17:18
    INDEX 01 13:19:18
  TRACK 05 AUDIO
    TITLE "Mensch und Tier"
    INDEX 00 17:29:09
    INDEX 01 17:31:09
  TRACK 06 AUDIO
    TITLE "Tranen in einer toten Welt"
    INDEX 00 21:36:07
    INDEX 01 21:38:07
  TRACK 07 AUDIO
    TITLE "Ficken ist ein schlimmes Wort"
    INDEX 00 26:25:45
    INDEX 01 26:27:45
  TRACK 08 AUDIO
    TITLE "Blutwalzer"
    INDEX 00 30:58:41
    INDEX 01 31:00:40
  TRACK 09 AUDIO
    TITLE "Sex in Latex"
    INDEX 00 35:01:01
    INDEX 01 35:03:01
  TRACK 10 AUDIO
    TITLE "Zukunftsvision"
    INDEX 00 39:13:13
    INDEX 01 39:15:13
  TRACK 11 AUDIO
    TITLE "Bete und Arbeite"
    INDEX 00 41:04:18
    INDEX 01 41:06:18
  TRACK 12 AUDIO
    TITLE "Quid pro quo"
    INDEX 00 46:16:64
    INDEX 01 46:18:64
  TRACK 13 AUDIO
    TITLE "Wie eine Hyane"
    INDEX 00 51:01:61
    INDEX 01 51:03:60
  TRACK 14 AUDIO
    TITLE "Paradis"
    INDEX 00 55:30:10
    INDEX 01 55:32:09
  TRACK 15 AUDIO
    TITLE "Ich bin Gott"
    INDEX 00 60:31:64
    INDEX 01 60:33:63
Треклист:
01. Beleidigte Engel (instrumental)
02. Wie eine Spinne (instrumental)
03. Blut geleckt (instrumental Streichquartett)
04. Rosen fur dich (instrumental)
05. Tanz fur dich (instrumental)
06. Wie eine Schlange (instrumental)
07. Freundin (instrumental)
08. Untergang (instrumental)
09. Liebeslied f ür dich (instrumental)
10. Therapie f ür dich (instrumental)
11. Mein Messer (instrumental)
12. Blut Geleckt (instrumental Klavier)
13. Blutwalzer (instrumental)
Код:
Exact Audio Copy V1.0 beta 4 from 7. December 2014
EAC extraction logfile from 23. July 2015, 18:01
Grausame T öchter / Glaube Liebe Hoffnung [bonus cd]
Used drive  : PLEXTOR BDDVDR PX-B320SA   Adapter: 4  ID: 2
Read mode               : Secure
Utilize accurate stream : Yes
Defeat audio cache      : Yes
Make use of C2 pointers : No
Read offset correction                      : 6
Overread into Lead-In and Lead-Out          : No
Fill up missing offset samples with silence : Yes
Delete leading and trailing silent blocks   : No
Null samples used in CRC calculations       : Yes
Used interface                              : Installed external ASPI interface
Used output format              : User Defined Encoder
Selected bitrate                : 896 kBit/s
Quality                         : High
Add ID3 tag                     : No
Command line compressor         : C:\Program Files\Flac\flac.exe
Additional command line options : -V -8 -T "COMMENT=ripped by DmXpert special for  СПАМ -T "Date=%year%" -T "Genre=%genre%" %source%
TOC of the extracted CD
     Track |   Start  |  Length  | Start sector | End sector
    ---------------------------------------------------------
        1  |  0:00.00 |  4:17.36 |         0    |    19310
        2  |  4:17.36 |  3:14.54 |     19311    |    33914
        3  |  7:32.15 |  2:23.64 |     33915    |    44703
        4  |  9:56.04 |  4:56.20 |     44704    |    66923
        5  | 14:52.24 |  3:19.31 |     66924    |    81879
        6  | 18:11.55 |  4:38.42 |     81880    |   102771
        7  | 22:50.22 |  2:56.24 |    102772    |   115995
        8  | 25:46.46 |  2:38.36 |    115996    |   127881
        9  | 28:25.07 |  4:01.59 |    127882    |   146015
       10  | 32:26.66 |  2:58.45 |    146016    |   159410
       11  | 35:25.36 |  3:06.05 |    159411    |   173365
       12  | 38:31.41 |  3:27.31 |    173366    |   188921
       13  | 41:58.72 |  2:33.26 |    188922    |   200422
Range status and errors
Selected range
     Filename D:\DmXpert for  СПАМ Tochter - Glaube Liebe Hoffnung (2015)(# SCAN 112L)\cd2\Grausame Tochter - Glaube Liebe Hoffnung [bonus cd].wav
     Peak level 98.8 %
     Extraction speed 3.3 X
     Range quality 100.0 %
     Test CRC 09BA965C
     Copy CRC 09BA965C
     Copy OK
No errors occurred
AccurateRip summary
Track  1  not present in database
Track  2  not present in database
Track  3  not present in database
Track  4  not present in database
Track  5  not present in database
Track  6  not present in database
Track  7  not present in database
Track  8  not present in database
Track  9  not present in database
Track 10  not present in database
Track 11  not present in database
Track 12  not present in database
Track 13  not present in database
None of the tracks are present in the AccurateRip database
End of status report
==== Log checksum 2BD382ABA8FE6755CFD073382ADFC74A527279598DAA175C8A4C36921E3A6D6D ====
Код:
REM DATE 2014
REM DISCID B90A700D
REM COMMENT ExactAudioCopy v1.0b4
PERFORMER "Grausame Tochter"
TITLE "Glaube Liebe Hoffnung [bonus cd Instrumental]"
FILE "Grausame Tochter - Glaube Liebe Hoffnung [bonus cd].flac" WAVE
  TRACK 01 AUDIO
    TITLE "Beleidigte Engel (instrumental)"
    INDEX 01 00:00:00
  TRACK 02 AUDIO
    TITLE "Wie eine Spinne (instrumental)"
    INDEX 00 04:15:36
    INDEX 01 04:17:36
  TRACK 03 AUDIO
    TITLE "Blut geleckt (instrumental Streichquartett)"
    INDEX 00 07:30:15
    INDEX 01 07:32:15
  TRACK 04 AUDIO
    TITLE "Rosen fur Dich (instrumental)"
    INDEX 00 09:54:04
    INDEX 01 09:56:04
  TRACK 05 AUDIO
    TITLE "Tanz fur Dich (instrumental)"
    INDEX 00 14:50:24
    INDEX 01 14:52:24
  TRACK 06 AUDIO
    TITLE "Wie eine Schlange (instrumental)"
    INDEX 00 18:09:55
    INDEX 01 18:11:55
  TRACK 07 AUDIO
    TITLE "Freundin (instrumental)"
    INDEX 00 22:48:22
    INDEX 01 22:50:22
  TRACK 08 AUDIO
    TITLE "Untergang (instrumental)"
    INDEX 00 25:44:47
    INDEX 01 25:46:46
  TRACK 09 AUDIO
    TITLE "Liebeslied fur Dich (instrumental)"
    INDEX 00 28:23:07
    INDEX 01 28:25:07
  TRACK 10 AUDIO
    TITLE "Therapie fur Dich (instrumental)"
    INDEX 00 32:24:67
    INDEX 01 32:26:66
  TRACK 11 AUDIO
    TITLE "Mein Messer (instrumental)"
    INDEX 00 35:23:37
    INDEX 01 35:25:36
  TRACK 12 AUDIO
    TITLE "Blut Geleckt (instrumental Klavier)"
    INDEX 00 38:29:41
    INDEX 01 38:31:41
  TRACK 13 AUDIO
    TITLE "Blutwalzer (instrumental)"
    INDEX 00 41:56:72
    INDEX 01 41:58:72
Правила, инструкции, FAQ!!!
Торрент  Добавлен [26 июн 2020, 17:48] Скачать торрент Магнет ссылка
Скачать торрент
[ Размер 26.41 КБ / Просмотров 8 ]

Статус
Проверен 
 
Размер  1.87 ГБ
Приватный: Нет (DHT включён)
.torrent скачан  0
 


     Отправить личное сообщение
   
Страница 1 из 1
Показать сообщения за:  Поле сортировки  
Начать новую тему Ответить на тему


Сейчас этот форум просматривают: нет зарегистрированных пользователей и гости: 0


Вы не можете начинать темы
Вы не можете отвечать на сообщения
Вы не можете редактировать свои сообщения
Вы не можете удалять свои сообщения
Вы не можете добавлять вложения

Перейти:  
cron