Начать новую тему Ответить на тему
Статистика раздачи
Размер: 428.48 МБ | Добавлен: 26 июн 2020, 17:28 | Скачали: 0
Сидеров: 0  [0 байт/сек]    Личеров: 0  [0 байт/сек]
Пред. тема | След. тема 

Автор
Сообщение

СообщениеДобавлено: 26 июн 2020, 17:28 

Ответить с цитатой 



Post Alcoholic Body Syndrome 2


Жанр: EBM, Electro, Industrial
Страна-производитель диска: Hungary
Год издания диска: 2007
Издатель (лейбл): Advoxya
Номер по каталогу: ad-hun-12-cd
Страна: Hungary
Аудио кодек: FLAC (*.flac)
Тип рипа: image+.cue
Битрейт аудио: lossless
Продолжительность: 01:16:04
Источник (релизер): Собственный диск
Наличие сканов в содержимом раздачи: нет
Треклист:
1. Denergized - After Tomorrow
2. The-Pulsar - Treasure (Pre-album Version)
3. T.W.Z. - Redemption
4. Deadjump - Life (Flamethrower Mix By FSJC)
5. Drained Scorn - Reptile Brain (From Age 18 Remix)
6. Wavefall - Childish Story
7. Instans - Hard Work (Harder Version)
8. Synaptic Defect - Global Genocide (Life And Death Remix)
9. Immunology - King Of Demon (Kill All DJs Mix By Mulphia)
10. Impact Pulse - Tears Of Confusion (Rapture Module Mix)
11. Mulphia - My World Is Over
12. Schyzzo.com - Dom 24-7
13. Severe Illusion - I Wish I Was Dead (V1.1)
14. Crystalline Effect, The - Jaged Edges (Advoxya Remix)
15. Nothing Nada - One, Two, Free (Nightwalker Remix By V.E.N.)

Код:
 Exact Audio Copy V1.0 beta 1 from 15. November 2010
EAC extraction logfile from 21. December 2010, 19:41
Various / Post Alcoholic Body Syndrome 2
Used drive  : HL-DT-STDVDRAM_GH15N   Adapter: 3  ID: 1
Read mode               : Secure
Utilize accurate stream : Yes
Defeat audio cache      : Yes
Make use of C2 pointers : No
Read offset correction                      : 667
Overread into Lead-In and Lead-Out          : No
Fill up missing offset samples with silence : Yes
Delete leading and trailing silent blocks   : No
Null samples used in CRC calculations       : Yes
Used interface                              : Native Win32 interface for Win NT & 2000
Used output format              : User Defined Encoder
Selected bitrate                : 896 kBit/s
Quality                         : High
Add ID3 tag                     : No
Command line compressor         : C:\Program Files\Exact Audio Copy\Flac\flac.exe
Additional command line options :  -8 -V %s
TOC of the extracted CD
     Track |   Start  |  Length  | Start sector | End sector
    ---------------------------------------------------------
        1  |  0:00.00 |  3:38.00 |         0    |    16349
        2  |  3:38.00 |  6:26.00 |     16350    |    45299
        3  | 10:04.00 |  4:48.00 |     45300    |    66899
        4  | 14:52.00 |  4:14.00 |     66900    |    85949
        5  | 19:06.00 |  4:24.00 |     85950    |   105749
        6  | 23:30.00 |  5:08.00 |    105750    |   128849
        7  | 28:38.00 |  4:38.00 |    128850    |   149699
        8  | 33:16.00 |  4:30.00 |    149700    |   169949
        9  | 37:46.00 |  4:38.00 |    169950    |   190799
       10  | 42:24.00 |  7:20.00 |    190800    |   223799
       11  | 49:44.00 |  4:58.00 |    223800    |   246149
       12  | 54:42.00 |  4:44.00 |    246150    |   267449
       13  | 59:26.00 |  4:28.00 |    267450    |   287549
       14  | 63:54.00 |  5:12.00 |    287550    |   310949
       15  | 69:06.00 |  6:58.00 |    310950    |   342299
Range status and errors
Selected range
     Filename C:\Downloads\Архивы\Various - Post Alcoholic Body Syndrome 2.wav
     Peak level 81.9 %
     Extraction speed 0.5 X
     Range quality 100.0 %
     Copy CRC 2E78D2F3
     Copy OK
No errors occurred
AccurateRip summary
Track  1  not present in database
Track  2  not present in database
Track  3  not present in database
Track  4  not present in database
Track  5  not present in database
Track  6  not present in database
Track  7  not present in database
Track  8  not present in database
Track  9  not present in database
Track 10  not present in database
Track 11  not present in database
Track 12  not present in database
Track 13  not present in database
Track 14  not present in database
Track 15  not present in database
None of the tracks are present in the AccurateRip database
End of status report
Правила, инструкции, FAQ!!!
Торрент  Добавлен [26 июн 2020, 17:28] Скачать торрент Магнет ссылка
Скачать торрент
[ Размер 17.39 КБ / Просмотров 12 ]

Статус
Проверен 
 
Размер  428.48 МБ
Приватный: Нет (DHT включён)
.torrent скачан  0
 


     Отправить личное сообщение
   
Страница 1 из 1
Показать сообщения за:  Поле сортировки  
Начать новую тему Ответить на тему


Сейчас этот форум просматривают: нет зарегистрированных пользователей и гости: 0


Вы не можете начинать темы
Вы не можете отвечать на сообщения
Вы не можете редактировать свои сообщения
Вы не можете удалять свои сообщения
Вы не можете добавлять вложения

Перейти:  
cron