Начать новую тему Ответить на тему
Статистика раздачи
Размер: 423.01 МБ | Добавлен: 26 июн 2020, 18:56 | Скачали: 0
Сидеров: 1  [0 байт/сек]    Личеров: 2  [0 байт/сек]
Пред. тема | След. тема 

Автор
Сообщение

СообщениеДобавлено: 26 июн 2020, 18:56 

Ответить с цитатой 

Penal Colony / 5 Man Job
Жанр: EBM Electro-Industrial
Носитель: CD
Страна-производитель диска: USA
Год издания: 1995
Издатель (лейбл): Cleopatra
Номер по каталогу: CLEO95122
Страна исполнителя (группы): USA
Аудиокодек: FLAC (*.flac)
Тип рипа: tracks+.cue
Битрейт аудио: lossless
Источник (релизер): собственный диск
Наличие сканов в содержимом раздачи: нет
Треклист:
1 Freemasons Of Enochian Magick (Jack The Crowley Remix) 6:18
2 Third Life (Time Center Remix) 6:51
3 Umbilical (Security 23rd World Remix) 5:25
4 Blue 9 (Free Me Remee) 5:45
5 Among The Living (Transcendental Repression Remix) 4:50
6 Halidified (Naked Men Only Remix) 3:52
7 Third Life (Sweeping The Floor Remix) 4:25
8 Blue 9 (Sin Trip Remix) 4:05
9 Freemasons Of Enochian Magick (Fallen Angels Remix) 8:21
10 Extremist (Parallel Qabal Remix) 5:06
11 When The Veins On The Back Of My Legs Hurt, It's Time To Stop (Fish Monkey Remix) 7:22
12 Reconciled (No Remorse Remix) 6:39
Код:
REM GENRE Electronic
REM DATE 1995
PERFORMER "Penal Colony "
TITLE "5 Man Job"
FILE "01. Freemasons Of Enochian Magick (Jack The Crowley Remix) .flac" WAVE
  TRACK 01 AUDIO
    TITLE "Freemasons Of Enochian Magick (Jack The Crowley Remix)"
    INDEX 01 00:00:00
FILE "02. Third Life (Time Center Remix) .flac" WAVE
  TRACK 02 AUDIO
    TITLE "Third Life (Time Center Remix)"
    INDEX 01 00:00:00
FILE "03. Umbilical (Security 23rd World Remix) .flac" WAVE
  TRACK 03 AUDIO
    TITLE "Umbilical (Security 23rd World Remix)"
    INDEX 01 00:00:00
FILE "04. Blue 9 (Free Me Remee) .flac" WAVE
  TRACK 04 AUDIO
    TITLE "Blue 9 (Free Me Remee)"
    INDEX 01 00:00:00
FILE "05. Among The Living (Transcendental Repression Remix) .flac" WAVE
  TRACK 05 AUDIO
    TITLE "Among The Living (Transcendental Repression Remix)"
    INDEX 01 00:00:00
FILE "06. Halidified (Naked Men Only Remix) .flac" WAVE
  TRACK 06 AUDIO
    TITLE "Halidified (Naked Men Only Remix)"
    INDEX 01 00:00:00
FILE "07. Third Life (Sweeping The Floor Remix) .flac" WAVE
  TRACK 07 AUDIO
    TITLE "Third Life (Sweeping The Floor Remix)"
    INDEX 01 00:00:00
FILE "08. Blue 9 (Sin Trip Remix) .flac" WAVE
  TRACK 08 AUDIO
    TITLE "Blue 9 (Sin Trip Remix)"
    INDEX 01 00:00:00
FILE "09. Freemasons Of Enochian Magick (Fallen Angels Remix) .flac" WAVE
  TRACK 09 AUDIO
    TITLE "Freemasons Of Enochian Magick (Fallen Angels Remix)"
    INDEX 01 00:00:00
FILE "10. Extremist (Parallel Qabal Remix) .flac" WAVE
  TRACK 10 AUDIO
    TITLE "Extremist (Parallel Qabal Remix)"
    INDEX 01 00:00:00
FILE "11. When The Veins On The Back Of My Legs Hurt, It's Time To Stop (Fish Monkey Remix) .flac" WAVE
  TRACK 11 AUDIO
    TITLE "When The Veins On The Back Of My Legs Hurt, It's Time To Stop (Fish Monkey Remix)"
    INDEX 01 00:00:00
FILE "12. Reconciled (No Remorse Remix) .flac" WAVE
  TRACK 12 AUDIO
    TITLE "Reconciled (No Remorse Remix)"
    INDEX 01 00:00:00
Доп. информация:
Описание издания: http://www.discogs.com/Penal-Colony-Five-Man-Job/release/193676
Забавная рецензия Льва Левина: http://industrialreviews.ru/review/3537
Tracks 1-5: Front Line Assembly Mixes
Tracks 6-7: Leæther Strip Mixes
Track 8: Spahn Ranch Mix
Tracks 9-11: Psychic TV Mixes
Track 12: Penal Colony Mix
Правила, инструкции, FAQ!!!
Торрент  Добавлен [26 июн 2020, 18:56] Скачать торрент Магнет ссылка
Скачать торрент
[ Размер 17.99 КБ / Просмотров 13 ]

Статус
Проверен 
 
Размер  423.01 МБ
Приватный: Нет (DHT включён)
.torrent скачан  0
 


     Отправить личное сообщение
   
Страница 1 из 1
Показать сообщения за:  Поле сортировки  
Начать новую тему Ответить на тему


Сейчас этот форум просматривают: нет зарегистрированных пользователей и гости: 0


Вы не можете начинать темы
Вы не можете отвечать на сообщения
Вы не можете редактировать свои сообщения
Вы не можете удалять свои сообщения
Вы не можете добавлять вложения

Перейти:  
cron