Начать новую тему Ответить на тему
Статистика раздачи
Размер: 419.35 МБ | Добавлен: 26 июн 2020, 20:03 | Скачали: 0
Сидеров: 0  [0 байт/сек]    Личеров: 0  [0 байт/сек]
Пред. тема | След. тема 

Автор
Сообщение

СообщениеДобавлено: 26 июн 2020, 20:03 

Ответить с цитатой 

[:SITD:] / Odyssey: 13
Жанр: EBM, Electro, Industrial
Страна-производитель диска: Germany
Год издания диска: 2005
Издатель (лейбл): Accession Records
Номер по каталогу: (A 090)
Страна: Germany
Аудиокодек: FLAC (*.flac)
Тип рипа: tracks+.cue
Битрейт аудио: lossless
Продолжительность: 50:40
Источник (релизер): Оригинальный Диск (Original CD)
Наличие сканов в содержимом раздачи: да
Треклист:
01. Odyssey - 2:53
02. Suffering In Solitude - 5:57
03. Firmament - 6:37
04. Crusade (London Standing Remix by Grendel) - 5:47
05. Venom (Slow Version) - 5:53
06. Wegweiser (Club Version) - 5:51
07. Benumbed - 6:27
08. Plastination City (Sympathetic Remix by Painbastard) - 5:15
09. Ascension (Absurd Minds Remix) - 6:00
Код:
Exact Audio Copy V0.99 prebeta 5 from 4. May 2009
EAC extraction logfile from 6. July 2011, 3:12
[:SITD:] / Odyssey:13 EP
Used drive  : ASUS    DRW-24B3LT   Adapter: 2  ID: 0
Read mode               : Secure
Utilize accurate stream : Yes
Defeat audio cache      : Yes
Make use of C2 pointers : No
Read offset correction                      : 6
Overread into Lead-In and Lead-Out          : No
Fill up missing offset samples with silence : Yes
Delete leading and trailing silent blocks   : No
Null samples used in CRC calculations       : Yes
Used interface                              : Native Win32 interface for Win NT & 2000
Gap handling                                : Appended to previous track
Used output format              : User Defined Encoder
Selected bitrate                : 1024 kBit/s
Quality                         : High
Add ID3 tag                     : No
Command line compressor         : C:\Program Files\Exact Audio Copy\Flac\flac.exe
Additional command line options : -8 -V -T "ARTIST=%a" -T "TITLE=%t" -T "ALBUM=%g" -T "DATE=%y" -T "TRACKNUMBER=%n" -T "GENRE=%m" -T "COMMENT=EAC FLAC -8" %s
TOC of the extracted CD
     Track |   Start  |  Length  | Start sector | End sector
    ---------------------------------------------------------
        1  |  0:00.00 |  2:53.10 |         0    |    12984
        2  |  2:53.10 |  5:56.72 |     12985    |    39756
        3  |  8:50.07 |  6:37.16 |     39757    |    69547
        4  | 15:27.23 |  5:47.28 |     69548    |    95600
        5  | 21:14.51 |  5:53.10 |     95601    |   122085
        6  | 27:07.61 |  5:50.60 |    122086    |   148395
        7  | 32:58.46 |  6:26.47 |    148396    |   177392
        8  | 39:25.18 |  5:14.49 |    177393    |   200991
        9  | 44:39.67 |  6:01.00 |    200992    |   228066
Track  1
     Filename O:\LOSSLESS\Раздача\[SITD] (2005) Odyssey 13\01. Odyssey.wav
     Pre-gap length  0:00:02.00
     Peak level 86.3 %
     Track quality 100.0 %
     Test CRC DFD49099
     Copy CRC DFD49099
     Accurately ripped (confidence 14)  [02305368]
     Copy OK
Track  2
     Filename O:\LOSSLESS\Раздача\[SITD] (2005) Odyssey 13\02. Suffering In Solitude.wav
     Peak level 96.5 %
     Track quality 99.9 %
     Test CRC 2866FD77
     Copy CRC 2866FD77
     Accurately ripped (confidence 14)  [E25DCBAD]
     Copy OK
Track  3
     Filename O:\LOSSLESS\Раздача\[SITD] (2005) Odyssey 13\03. Firmament.wav
     Pre-gap length  0:00:02.02
     Peak level 94.3 %
     Track quality 100.0 %
     Test CRC C668972D
     Copy CRC C668972D
     Accurately ripped (confidence 14)  [17BF3D18]
     Copy OK
Track  4
     Filename O:\LOSSLESS\Раздача\[SITD] (2005) Odyssey 13\04. Crusade (London Standing Remix By Grendel).wav
     Pre-gap length  0:00:00.57
     Peak level 91.1 %
     Track quality 100.0 %
     Test CRC 3E93ACF1
     Copy CRC 3E93ACF1
     Accurately ripped (confidence 14)  [123BA164]
     Copy OK
Track  5
     Filename O:\LOSSLESS\Раздача\[SITD] (2005) Odyssey 13\05. Venom (Slow Version).wav
     Pre-gap length  0:00:01.97
     Peak level 94.3 %
     Track quality 100.0 %
     Test CRC C153F4A8
     Copy CRC C153F4A8
     Accurately ripped (confidence 14)  [170C066F]
     Copy OK
Track  6
     Filename O:\LOSSLESS\Раздача\[SITD] (2005) Odyssey 13\06. Wegweiser (Club Version).wav
     Pre-gap length  0:00:02.46
     Peak level 91.0 %
     Track quality 100.0 %
     Test CRC ECE85748
     Copy CRC ECE85748
     Accurately ripped (confidence 14)  [37C17F64]
     Copy OK
Track  7
     Filename O:\LOSSLESS\Раздача\[SITD] (2005) Odyssey 13\07. Benumbed.wav
     Pre-gap length  0:00:01.46
     Peak level 99.9 %
     Track quality 100.0 %
     Test CRC B1613C23
     Copy CRC B1613C23
     Accurately ripped (confidence 14)  [4392194A]
     Copy OK
Track  8
     Filename O:\LOSSLESS\Раздача\[SITD] (2005) Odyssey 13\08. Plastination City (Sympathetic Remix By Painbastard).wav
     Pre-gap length  0:00:00.98
     Peak level 94.3 %
     Track quality 100.0 %
     Test CRC 8409E557
     Copy CRC 8409E557
     Accurately ripped (confidence 14)  [3E002893]
     Copy OK
Track  9
     Filename O:\LOSSLESS\Раздача\[SITD] (2005) Odyssey 13\09. Ascension (Remix By Absurd Minds).wav
     Pre-gap length  0:00:00.52
     Peak level 94.0 %
     Track quality 100.0 %
     Test CRC CF825EFF
     Copy CRC CF825EFF
     Accurately ripped (confidence 14)  [C8312603]
     Copy OK
All tracks accurately ripped
No errors occurred
End of status report
Код:
REM GENRE Industrial
REM DATE 2005
REM DISCID 840BE009
REM COMMENT "ExactAudioCopy v0.99pb5"
PERFORMER "[:SITD:]"
TITLE "Odyssey:13 EP"
FILE "01. Odyssey.wav" WAVE
  TRACK 01 AUDIO
    TITLE "Odyssey"
    PERFORMER "[:SITD:]"
    INDEX 01 00:00:00
FILE "02. Suffering In Solitude.wav" WAVE
  TRACK 02 AUDIO
    TITLE "Suffering In Solitude"
    PERFORMER "[:SITD:]"
    INDEX 01 00:00:00
  TRACK 03 AUDIO
    TITLE "Firmament"
    PERFORMER "[:SITD:]"
    INDEX 00 05:54:70
FILE "03. Firmament.wav" WAVE
    INDEX 01 00:00:00
  TRACK 04 AUDIO
    TITLE "Crusade (London Standing Remix By Grendel)"
    PERFORMER "[:SITD:]"
    INDEX 00 06:36:48
FILE "04. Crusade (London Standing Remix By Grendel).wav" WAVE
    INDEX 01 00:00:00
  TRACK 05 AUDIO
    TITLE "Venom (Slow Version)"
    PERFORMER "[:SITD:]"
    INDEX 00 05:45:30
FILE "05. Venom (Slow Version).wav" WAVE
    INDEX 01 00:00:00
  TRACK 06 AUDIO
    TITLE "Wegweiser (Club Version)"
    PERFORMER "[:SITD:]"
    INDEX 00 05:50:50
FILE "06. Wegweiser (Club Version).wav" WAVE
    INDEX 01 00:00:00
  TRACK 07 AUDIO
    TITLE "Benumbed"
    PERFORMER "[:SITD:]"
    INDEX 00 05:49:25
FILE "07. Benumbed.wav" WAVE
    INDEX 01 00:00:00
  TRACK 08 AUDIO
    TITLE "Plastination City (Sympathetic Remix By Painbastard)"
    PERFORMER "[:SITD:]"
    INDEX 00 06:25:48
FILE "08. Plastination City (Sympathetic Remix By Painbastard).wav" WAVE
    INDEX 01 00:00:00
  TRACK 09 AUDIO
    TITLE "Ascension (Remix By Absurd Minds)"
    PERFORMER "[:SITD:]"
    INDEX 00 05:14:10
FILE "09. Ascension (Remix By Absurd Minds).wav" WAVE
    INDEX 01 00:00:00
Artwork [Idea, Concept], Design [Sleeve] – Userdx
Co-producer – Krischan Jan-Eric Wesenberg
Lyrics By – Carsten Jacek (tracks: 2 to 7, 9)
Mastered By – Krischan Jan-Eric Wesenberg
Music By – Thomas Lesczenski (tracks: 1 to 9)
Performer [(:sitd:) Are] – Carsten Jacek, Francesco Frank D'Angelo, Thomas Lesczenski
Vocals – Carsten Jacek (tracks: 3, 4, 6, 7, 9), Thomas Lesczenski (tracks: 2, 5)
Written By, Composed By, Performer, Arranged By, Producer – [:SITD:]
Mixed, engineered and recorded at the [:SITD:] HQ GE between July 2005 and September 2005
Mastered at Studio600
Правила, инструкции, FAQ!!!
Торрент  Добавлен [26 июн 2020, 20:03] Скачать торрент Магнет ссылка
Скачать торрент
[ Размер 17.99 КБ / Просмотров 9 ]

Статус
Проверен 
 
Размер  419.35 МБ
Приватный: Нет (DHT включён)
.torrent скачан  0
 


     Отправить личное сообщение
   
Страница 1 из 1
Показать сообщения за:  Поле сортировки  
Начать новую тему Ответить на тему


Сейчас этот форум просматривают: нет зарегистрированных пользователей и гости: 0


Вы не можете начинать темы
Вы не можете отвечать на сообщения
Вы не можете редактировать свои сообщения
Вы не можете удалять свои сообщения
Вы не можете добавлять вложения

Перейти:  
cron