Начать новую тему Ответить на тему
Статистика раздачи
Размер: 564.19 МБ | Добавлен: 26 июн 2020, 17:15 | Скачали: 0
Сидеров: 0  [0 байт/сек]    Личеров: 0  [0 байт/сек]
Пред. тема | След. тема 

Автор
Сообщение

СообщениеДобавлено: 26 июн 2020, 17:15 

Ответить с цитатой 

Object - The Ethane Asylum
Жанр: EBM / Electro / Industrial
Год выпуска диска: 2008
Производитель диска: US
Аудио кодек: APE
Тип рипа: image+.cue
Битрейт аудио: lossless
Продолжительность: 76:49
Трэклист:
1 Future (5:31)
2 Dreamer Without Dreams (4:40)
3 Infanticide (5:54)
4 Liquid Crystal View (7:35)
5 Existence On Trial (5:07)
6 Celestial Circuitry (4:24)
7 Colliding Thoughts (4:00)
8 End Of Sin (4:18)
9 The Ethane Asylum (4:49)
10 Behind Golden Masks (7:03)
11 Cycle Of Time (5:13)
12 The Insects Sleep (4:42)
13 The Reflecting Skin (Reborn God Mix By MC1R) (6:44)
Remix - MC1R
14 The Ethane Asylum (Brain Leisure Remix) (6:50)
Remix - Brain Leisure
Доп. информация: Vendetta Music; VM0006
Код:
Exact Audio Copy V0.99 prebeta 4 from 23. January 2008
EAC extraction logfile from 19. April 2009, 0:46
Object / The Ethane Asylum
Used drive  : TEAC    DV-W520GS   Adapter: 5  ID: 0
Read mode               : Secure
Utilize accurate stream : Yes
Defeat audio cache      : Yes
Make use of C2 pointers : No
Read offset correction                      : 6
Overread into Lead-In and Lead-Out          : No
Fill up missing offset samples with silence : Yes
Delete leading and trailing silent blocks   : No
Null samples used in CRC calculations       : Yes
Used interface                              : Installed external ASPI interface
Used output format : Internal WAV Routines
Sample format      : 44.100 Hz; 16 Bit; Stereo
TOC of the extracted CD
     Track |   Start  |  Length  | Start sector | End sector
    ---------------------------------------------------------
        1  |  0:00.00 |  5:31.22 |         0    |    24846
        2  |  5:31.22 |  4:40.14 |     24847    |    45860
        3  | 10:11.36 |  5:53.50 |     45861    |    72385
        4  | 16:05.11 |  7:34.51 |     72386    |   106486
        5  | 23:39.62 |  5:07.00 |    106487    |   129511
        6  | 28:46.62 |  4:23.67 |    129512    |   149303
        7  | 33:10.54 |  3:59.72 |    149304    |   167300
        8  | 37:10.51 |  4:18.01 |    167301    |   186651
        9  | 41:28.52 |  4:48.67 |    186652    |   208318
       10  | 46:17.44 |  7:02.68 |    208319    |   240036
       11  | 53:20.37 |  5:12.54 |    240037    |   263490
       12  | 58:33.16 |  4:42.00 |    263491    |   284640
       13  | 63:15.16 |  6:43.65 |    284641    |   314930
       14  | 69:59.06 |  6:50.00 |    314931    |   345680
Range status and errors
Selected range
   Filename K:\Object - The Ethane Asylum\CDImage.wav
   Peak level 100.0 %
   Range quality 100.0 %
   Test CRC 5EFF9969
   Copy CRC 5EFF9969
   Copy OK
No errors occurred
AccurateRip summary
Track  1  not present in database
Track  2  not present in database
Track  3  not present in database
Track  4  not present in database
Track  5  not present in database
Track  6  not present in database
Track  7  not present in database
Track  8  not present in database
Track  9  not present in database
Track 10  not present in database
Track 11  not present in database
Track 12  not present in database
Track 13  not present in database
Track 14  not present in database
None of the tracks are present in the AccurateRip database
End of status report
Код:
AUDIOCHECKER v2.0 beta (build 457) - by Dester - opdester@freemail.hu
~~~~~~~~~~~~~~~~~~~~~~~~~~~~~~~~~~
-=== DO NOT EDIT THIS FILE! ===-
Path: ...\Object - The Ethane Asylum
01 -=- CDImage.wav -=- CDDA (100%)
190127764
Cканы в комплекте.
Не забываем про спасибы
Правила, инструкции, FAQ!!!
Торрент  Добавлен [26 июн 2020, 17:15] Скачать торрент Магнет ссылка
Скачать торрент
[ Размер 11.86 КБ / Просмотров 7 ]

Статус
Проверен 
 
Размер  564.19 МБ
Приватный: Нет (DHT включён)
.torrent скачан  0
 


     Отправить личное сообщение
   
Страница 1 из 1
Показать сообщения за:  Поле сортировки  
Начать новую тему Ответить на тему


Сейчас этот форум просматривают: нет зарегистрированных пользователей и гости: 0


Вы не можете начинать темы
Вы не можете отвечать на сообщения
Вы не можете редактировать свои сообщения
Вы не можете удалять свои сообщения
Вы не можете добавлять вложения

Перейти:  
cron