Начать новую тему Ответить на тему
Статистика раздачи
Размер: 1.19 ГБ | Добавлен: 26 июн 2020, 17:06 | Скачали: 0
Сидеров: 0  [0 байт/сек]    Личеров: 0  [0 байт/сек]
Пред. тема | След. тема 

Автор
Сообщение

СообщениеДобавлено: 26 июн 2020, 17:06 

Ответить с цитатой 

Object / Mechanisms Of Faith
Жанр: EBM, Electro, Synth-pop, Industrial
Страна-производитель диска: Germany
Год издания: 2012
Издатель (лейбл): Electro Aggression Records
Номер по каталогу: EAR 002
Формат: 2 × CD, Album, Digipak
Аудиокодек: FLAC (*.flac)
Тип рипа: image+.cue
Битрейт аудио: lossless
Продолжительность: [disс1] 1:16:52.69 / [disс2] 1:19:59.61
Источник (релизер): Физические носители (Собственный рип с оригинала).
Наличие сканов в содержимом раздачи: да
Треклист ( Disc1: Mechanisms Of Faith ):
01. Mescaline Crisis (Feat. Fix8:Sed8) [4:42]
02. Neural Explosions [6:26]
03. The Mechanisms Of Faith [5:12]
04. Dream Collector [4:01]
05. State Of Reality [6:32]
06. Blind Obedience [5:54]
07. Under Zero Halo [5:14]
08. Distant Memories [3:59]
09. Soul Seeking (Feat. LPF12) [4:59]
10. Morphine Desire [5:46]
11. For Eternity [4:53]
12. Density Of Fear [5:03]
13. Urban Claustrophobia [3:22]
14. Empires In Peril (Album Version) [6:22]
15. Each Slow Turn [4:29]
Треклист ( Disc2: Old School Conspiracy ):
01. Blood Patch [4:22]
02. Blood Patch Part 2 [7:38]
03. Density Of Fear [7:33]
04. Mescaline Crisis (Burnout) [4:36]
05. Mescaline Crisis (Acoasm) [4:52]
06. Blood Patch (Alternative Instrumental Version 2011) [4:35]
07. Morphine Desire (Analgetic TB-Mix) [5:50]
08. Mescaline Crisis [5:44]
09. Morphine Desire (Reform) [5:27]
10. Existence On Trial (Abscess(ed)) [5:30]
11. Morphine Desire [7:33]
12. Existence On Trial [5:07]
13. Static Motion (Unreleased Demo) [4:58]
14. End Of Line (Unreleased Demo) [6:16]
Код:
Exact Audio Copy V1.0 beta 3 from 29. August 2011
EAC extraction logfile from 9. April 2012, 19:16
Object / Mechanisms Of Faith
Used drive  : PLEXTOR BDDVDR PX-B320SA   Adapter: 0  ID: 2
Read mode               : Secure
Utilize accurate stream : Yes
Defeat audio cache      : Yes
Make use of C2 pointers : No
Read offset correction                      : 6
Overread into Lead-In and Lead-Out          : No
Fill up missing offset samples with silence : Yes
Delete leading and trailing silent blocks   : No
Null samples used in CRC calculations       : Yes
Used interface                              : Native Win32 interface for Win NT & 2000
Used output format              : User Defined Encoder
Selected bitrate                : 128 kBit/s
Quality                         : High
Add ID3 tag                     : No
Command line compressor         : C:\Program Files (x86)\FLAC\flac.exe
Additional command line options : -V -8 -T "Date=%year%" -T "Genre=%genre%" %source%
TOC of the extracted CD
     Track |   Start  |  Length  | Start sector | End sector
    ---------------------------------------------------------
        1  |  0:00.00 |  4:42.15 |         0    |    21164
        2  |  4:42.15 |  6:26.00 |     21165    |    50114
        3  | 11:08.15 |  5:12.00 |     50115    |    73514
        4  | 16:20.15 |  4:01.12 |     73515    |    91601
        5  | 20:21.27 |  6:32.00 |     91602    |   121001
        6  | 26:53.27 |  5:54.00 |    121002    |   147551
        7  | 32:47.27 |  5:14.02 |    147552    |   171103
        8  | 38:01.29 |  3:58.44 |    171104    |   188997
        9  | 41:59.73 |  4:58.71 |    188998    |   211418
       10  | 46:58.69 |  5:46.00 |    211419    |   237368
       11  | 52:44.69 |  4:52.56 |    237369    |   259324
       12  | 57:37.50 |  5:02.52 |    259325    |   282026
       13  | 62:40.27 |  3:22.00 |    282027    |   297176
       14  | 66:02.27 |  6:22.01 |    297177    |   325827
       15  | 72:24.28 |  4:28.41 |    325828    |   345968
Range status and errors
Selected range
     Filename D:\Object - Mechanisms Of Faith (2012)\Disc1 Mechanisms Of Faith\Object - Mechanisms Of Faith.wav
     Peak level 100.0 %
     Extraction speed 4.0 X
     Range quality 100.0 %
     Test CRC 2236A093
     Copy CRC 2236A093
     Copy OK
No errors occurred
AccurateRip summary
Track  1  not present in database
Track  2  not present in database
Track  3  not present in database
Track  4  not present in database
Track  5  not present in database
Track  6  not present in database
Track  7  not present in database
Track  8  not present in database
Track  9  not present in database
Track 10  not present in database
Track 11  not present in database
Track 12  not present in database
Track 13  not present in database
Track 14  not present in database
Track 15  not present in database
None of the tracks are present in the AccurateRip database
End of status report
==== Log checksum 94B06FFB5B424B1EAF091F65F45C831338DD360DE30575E043A188616119D159 ====
Код:
Exact Audio Copy V1.0 beta 3 from 29. August 2011
EAC extraction logfile from 9. April 2012, 20:15
Object / Mechanisms Of Faith (Old School Conspiracy)
Used drive  : PLEXTOR BDDVDR PX-B320SA   Adapter: 0  ID: 2
Read mode               : Secure
Utilize accurate stream : Yes
Defeat audio cache      : Yes
Make use of C2 pointers : No
Read offset correction                      : 6
Overread into Lead-In and Lead-Out          : No
Fill up missing offset samples with silence : Yes
Delete leading and trailing silent blocks   : No
Null samples used in CRC calculations       : Yes
Used interface                              : Native Win32 interface for Win NT & 2000
Used output format              : User Defined Encoder
Selected bitrate                : 128 kBit/s
Quality                         : High
Add ID3 tag                     : No
Command line compressor         : C:\Program Files (x86)\FLAC\flac.exe
Additional command line options : -V -8 -T "Date=%year%" -T "Genre=%genre%" %source%
TOC of the extracted CD
     Track |   Start  |  Length  | Start sector | End sector
    ---------------------------------------------------------
        1  |  0:00.00 |  4:21.58 |         0    |    19632
        2  |  4:21.58 |  7:38.00 |     19633    |    53982
        3  | 11:59.58 |  7:33.15 |     53983    |    87972
        4  | 19:32.73 |  4:36.00 |     87973    |   108672
        5  | 24:08.73 |  4:52.00 |    108673    |   130572
        6  | 29:00.73 |  4:34.45 |    130573    |   151167
        7  | 33:35.43 |  5:49.54 |    151168    |   177396
        8  | 39:25.22 |  5:43.53 |    177397    |   203174
        9  | 45:09.00 |  5:27.22 |    203175    |   227721
       10  | 50:36.22 |  5:29.52 |    227722    |   252448
       11  | 56:05.74 |  7:32.62 |    252449    |   286410
       12  | 63:38.61 |  5:06.60 |    286411    |   309420
       13  | 68:45.46 |  4:57.69 |    309421    |   331764
       14  | 73:43.40 |  6:16.21 |    331765    |   359985
Range status and errors
Selected range
     Filename D:\Object - Mechanisms Of Faith (2012)\Disc2 Old School Conspiracy\Object - Mechanisms Of Faith (Old School Conspiracy).wav
     Peak level 100.0 %
     Extraction speed 4.2 X
     Range quality 100.0 %
     Test CRC 3577D268
     Copy CRC 3577D268
     Copy OK
No errors occurred
AccurateRip summary
Track  1  not present in database
Track  2  not present in database
Track  3  not present in database
Track  4  not present in database
Track  5  not present in database
Track  6  not present in database
Track  7  not present in database
Track  8  not present in database
Track  9  not present in database
Track 10  not present in database
Track 11  not present in database
Track 12  not present in database
Track 13  not present in database
Track 14  not present in database
None of the tracks are present in the AccurateRip database
End of status report
==== Log checksum 0E77604E63AD9102EE8092763D551E207635BF85156A6FDA77567E106DEB85D5 ====
Раздача осуществляется исключительно в ознакомительных целях!
Всем, кому понравилось творчество Object
, после ознакомления, советую приобрести лицензионный диск, и тем самым поддержать исполнителя !
Handing out is carried out only to get acquainted!
Everyone who likes to art Object
, I advise to follow my example and buy a license legally CD, and thus support the artist!
Правила, инструкции, FAQ!!!
Торрент  Добавлен [26 июн 2020, 17:06] Скачать торрент Магнет ссылка
Скачать торрент
[ Размер 13.39 КБ / Просмотров 2 ]

Статус
Проверен 
 
Размер  1.19 ГБ
Приватный: Нет (DHT включён)
.torrent скачан  0
 


     Отправить личное сообщение
   
Страница 1 из 1
Показать сообщения за:  Поле сортировки  
Начать новую тему Ответить на тему


Сейчас этот форум просматривают: нет зарегистрированных пользователей и гости: 0


Вы не можете начинать темы
Вы не можете отвечать на сообщения
Вы не можете редактировать свои сообщения
Вы не можете удалять свои сообщения
Вы не можете добавлять вложения

Перейти:  
cron