Начать новую тему Ответить на тему
Статистика раздачи
Размер: 593.11 МБ | Добавлен: 26 июн 2020, 16:49 | Скачали: 0
Сидеров: 0  [0 байт/сек]    Личеров: 0  [0 байт/сек]
Пред. тема | След. тема 

Автор
Сообщение

СообщениеДобавлено: 26 июн 2020, 16:49 

Ответить с цитатой 

Noise Process - GroundZero
Жанр: EBM / Electro / Industrial
Год выпуска диска: 2007
Производитель диска: US
Аудио кодек: APE
Тип рипа: image+.cue
Битрейт аудио: lossless
Продолжительность: 78:00
Трэклист:
1 The First War (5:33)
2 Interruption (5:14)
3 Wreckage (6:07)
4 Wall Of Tears (6:30)
5 Half-Life (6:23)
6 Desolation (6:17)
7 Critical Mass (4:15)
8 Injustice (5:15)
9 Still Burning (Underneath The Ruin) (6:20)
10 Sub//Unit.exe (5:40)
11 Sufphoric (5:34)
12 Aftermath (6:47)
13 Sub//Repair.sys (7:56
Доп. информация: DSBP; DSBP #1083
Noise Process was founded in 1998 by Tim Garelick as a side project of his band GOD.NET. In 2000 Tim met Michael Renfield and the two decided to restructure the project and make it a professional en devour. Signing with Wire Productions in Germany shortly thereafter, the duo released Neural Code and the follow-up remix album Synapse.
Then in 2007 the duo signed with DSBP in the US and released Groundzer0.
Код:
Exact Audio Copy V0.99 prebeta 4 from 23. January 2008
EAC extraction logfile from 3. December 2008, 16:21
Noise Process / GroundZero
Used drive  : PIONEER DVD-RW  DVR-112D   Adapter: 1  ID: 1
Read mode               : Secure
Utilize accurate stream : Yes
Defeat audio cache      : Yes
Make use of C2 pointers : No
Read offset correction                      : 48
Overread into Lead-In and Lead-Out          : No
Fill up missing offset samples with silence : Yes
Delete leading and trailing silent blocks   : No
Null samples used in CRC calculations       : Yes
Used interface                              : Installed external ASPI interface
Used output format : Internal WAV Routines
Sample format      : 44.100 Hz; 16 Bit; Stereo
TOC of the extracted CD
     Track |   Start  |  Length  | Start sector | End sector
    ---------------------------------------------------------
        1  |  0:00.00 |  5:33.56 |         0  |       25030
        2  |  5:33.56 |  5:14.51 |     25031  |       48631
        3  | 10:48.32 |  6:07.32 |     48632  |       76188
        4  | 16:55.64 |  6:30.49 |     76189  |      105487
        5  | 23:26.38 |  6:23.45 |    105488  |      134257
        6  | 29:50.08 |  6:17.20 |    134258  |      162552
        7  | 36:07.28 |  4:15.53 |    162553  |      181730
        8  | 40:23.06 |  5:15.66 |    181731  |      205421
        9  | 45:38.72 |  6:20.61 |    205422  |      233982
       10  | 51:59.58 |  5:40.51 |    233983  |      259533
       11  | 57:40.34 |  5:34.41 |    259534  |      284624
       12  | 63:15.00 |  6:47.00 |    284625  |      315149
       13  | 70:02.00 |  7:56.36 |    315150  |      350885
Range status and errors
Selected range
   Filename J:\Noise Process - GroundZero\CDImage.wav
   Peak level 100.0 %
   Range quality 100.0 %
   Test CRC 6696C8A2
   Copy CRC 6696C8A2
   Copy OK
No errors occurred
AccurateRip summary
Track  1  not present in database
Track  2  not present in database
Track  3  not present in database
Track  4  not present in database
Track  5  not present in database
Track  6  not present in database
Track  7  not present in database
Track  8  not present in database
Track  9  not present in database
Track 10  not present in database
Track 11  not present in database
Track 12  not present in database
Track 13  not present in database
None of the tracks are present in the AccurateRip database
End of status report
Код:
AUDIOCHECKER v2.0 beta (build 457) - by Dester - opdester@freemail.hu
~~~~~~~~~~~~~~~~~~~~~~~~~~~~~~~~~~
-=== DO NOT EDIT THIS FILE! ===-
Path: ...\Noise Process - GroundZero
01 -=- CDImage.wav -=- CDDA (100%)
190127764
Правила, инструкции, FAQ!!!
Торрент  Добавлен [26 июн 2020, 16:49] Скачать торрент Магнет ссылка
Скачать торрент
[ Размер 12.45 КБ / Просмотров 3 ]

Статус
Проверен 
 
Размер  593.11 МБ
Приватный: Нет (DHT включён)
.torrent скачан  0
 


     Отправить личное сообщение
   
Страница 1 из 1
Показать сообщения за:  Поле сортировки  
Начать новую тему Ответить на тему


Сейчас этот форум просматривают: нет зарегистрированных пользователей и гости: 0


Вы не можете начинать темы
Вы не можете отвечать на сообщения
Вы не можете редактировать свои сообщения
Вы не можете удалять свои сообщения
Вы не можете добавлять вложения

Перейти:  
cron