Начать новую тему Ответить на тему
Статистика раздачи
Размер: 315.48 МБ | Добавлен: 26 июн 2020, 17:03 | Скачали: 0
Сидеров: 0  [0 байт/сек]    Личеров: 0  [0 байт/сек]
Пред. тема | След. тема 

Автор
Сообщение

СообщениеДобавлено: 26 июн 2020, 17:03 

Ответить с цитатой 

Necro Facility / Wintermute
Жанр: EBM, Electro, Industrial
Страна-производитель диска: Sweden
Год издания диска: 2011
Издатель (лейбл): Progress Productions
Номер по каталогу: PROCD031
Страна: Sweden
Аудиокодек: FLAC (*.flac)
Тип рипа: tracks+.cue
Битрейт аудио: lossless
Продолжительность: 00:42:06
Источник (релизер): What.CD
Наличие сканов в содержимом раздачи: нет
Треклист:
01. You Want It
02. Explode
03. Cuts
04. Do You Feel The Same
05. Fall Apart
06. Waiting For The Snow
07. Ignite
08. Skrik
09. Supposed
10. All That You Take
Код:
dBpoweramp Release 14.1 Digital Audio Extraction Log from Mittwoch, 13. Juli 2011 05:57
Drive & Settings
----------------
Ripping with drive 'G:   [PLEXTOR  - DVDR   PX-716A  ]',  Drive offset: 30,  Overread Lead-in/out: Yes
AccurateRip: Active,  Using C2: Yes,  Cache: None,  FUA Cache Invalidate: Yes
Pass 1 Drive Speed: Max,  Pass 2 Drive Speed: Max
Ultra::  Vary Drive Speed: No,  Min Passes: 1,  Max Passes: 6,  Finish After Clean Passes: 2
Bad Sector Re-rip::  Drive Speed: Max,  Maximum Re-reads: 700
Encoder: FLAC -compression-level-8 -verify
DSP Effects / Actions: -dspeffect1="ReplayGain=-albummode={qt}1{qt}"
Extraction Log
--------------
Track 1:  Ripped LBA 0 to 17145 (3:48) in 0:12. Filename: D:\Users\Slack\Musik Neu\Necro Facility - Wintermute\01 - You Want It.flac
  AccurateRip: Accurate (confidence 1)     [Pass 1]
  CRC32: DE5161BD     AccurateRip CRC: F05DEF67 (CRCv2)     [DiscID: 010-000f111e-0079eaa4-8409de0a-1]
  AccurateRip Verified Confidence 1 [CRCv2 f05def67]
Track 2:  Ripped LBA 17145 to 33666 (3:40) in 0:10. Filename: D:\Users\Slack\Musik Neu\Necro Facility - Wintermute\02 - Explode.flac
  AccurateRip: Accurate (confidence 1)     [Pass 1]
  CRC32: 4F007627     AccurateRip CRC: 4E0F782A (CRCv2)     [DiscID: 010-000f111e-0079eaa4-8409de0a-2]
  AccurateRip Verified Confidence 1 [CRCv2 4e0f782a]
Track 3:  Ripped LBA 33666 to 52348 (4:09) in 0:11. Filename: D:\Users\Slack\Musik Neu\Necro Facility - Wintermute\03 - Cuts.flac
  AccurateRip: Accurate (confidence 1)     [Pass 1]
  CRC32: 45B449F7     AccurateRip CRC: 9B92411F (CRCv2)     [DiscID: 010-000f111e-0079eaa4-8409de0a-3]
  AccurateRip Verified Confidence 1 [CRCv2 9b92411f]
Track 4:  Ripped LBA 52348 to 65646 (2:57) in 0:07. Filename: D:\Users\Slack\Musik Neu\Necro Facility - Wintermute\04 - Do You Feel the Same.flac
  AccurateRip: Accurate (confidence 1)     [Pass 1]
  CRC32: 18F377DD     AccurateRip CRC: 9BC17F28 (CRCv2)     [DiscID: 010-000f111e-0079eaa4-8409de0a-4]
  AccurateRip Verified Confidence 1 [CRCv2 9bc17f28]
Track 5:  Ripped LBA 65646 to 85151 (4:20) in 0:10. Filename: D:\Users\Slack\Musik Neu\Necro Facility - Wintermute\05 - Fall Apart.flac
  AccurateRip: Accurate (confidence 1)     [Pass 1]
  CRC32: E8667FA2     AccurateRip CRC: 16EC1EA8 (CRCv2)     [DiscID: 010-000f111e-0079eaa4-8409de0a-5]
  AccurateRip Verified Confidence 1 [CRCv2 16ec1ea8]
Track 6:  Ripped LBA 85151 to 106135 (4:39) in 0:10. Filename: D:\Users\Slack\Musik Neu\Necro Facility - Wintermute\06 - Waiting for the Snow.flac
  AccurateRip: Accurate (confidence 1)     [Pass 1]
  CRC32: 2313B14E     AccurateRip CRC: E47DD475 (CRCv2)     [DiscID: 010-000f111e-0079eaa4-8409de0a-6]
  AccurateRip Verified Confidence 1 [CRCv2 e47dd475]
Track 7:  Ripped LBA 106135 to 126816 (4:35) in 0:09. Filename: D:\Users\Slack\Musik Neu\Necro Facility - Wintermute\07 - Ignite.flac
  AccurateRip: Accurate (confidence 1)     [Pass 1]
  CRC32: E04959A0     AccurateRip CRC: EF3D09FE (CRCv2)     [DiscID: 010-000f111e-0079eaa4-8409de0a-7]
  AccurateRip Verified Confidence 1 [CRCv2 ef3d09fe]
Track 8:  Ripped LBA 126816 to 146017 (4:16) in 0:08. Filename: D:\Users\Slack\Musik Neu\Necro Facility - Wintermute\08 - Skrik.flac
  AccurateRip: Accurate (confidence 1)     [Pass 1]
  CRC32: C022E308     AccurateRip CRC: C009A77C (CRCv2)     [DiscID: 010-000f111e-0079eaa4-8409de0a-8]
  AccurateRip Verified Confidence 1 [CRCv2 c009a77c]
Track 9:  Ripped LBA 146017 to 164997 (4:13) in 0:08. Filename: D:\Users\Slack\Musik Neu\Necro Facility - Wintermute\09 - Supposed.flac
  AccurateRip: Accurate (confidence 1)     [Pass 1]
  CRC32: 9267122D     AccurateRip CRC: B510980A (CRCv2)     [DiscID: 010-000f111e-0079eaa4-8409de0a-9]
  AccurateRip Verified Confidence 1 [CRCv2 b510980a]
Track 10:  Ripped LBA 164997 to 189501 (5:26) in 0:10. Filename: D:\Users\Slack\Musik Neu\Necro Facility - Wintermute\10 - All That You Take.flac
  AccurateRip: Accurate (confidence 1)     [Pass 1]
  CRC32: 207F2217     AccurateRip CRC: 68228E81 (CRCv2)     [DiscID: 010-000f111e-0079eaa4-8409de0a-10]
  AccurateRip Verified Confidence 1 [CRCv2 68228e81]
--------------
10 Tracks Ripped Accurately
Код:
REM GENRE EBM
REM DATE 2011
REM DISCID 8409DE0A
REM COMMENT "ExactAudioCopy v0.95b4"
CATALOG 7393210326200
PERFORMER "Necro Facility"
TITLE "Wintermute"
FILE "01 - You Want It.flac" WAVE
  TRACK 01 AUDIO
    TITLE "You Want It"
    PERFORMER "Necro Facility"
    ISRC SEYFX1100501
    FLAGS DCP
    INDEX 01 00:00:00
FILE "02 - Explode.flac" WAVE
  TRACK 02 AUDIO
    TITLE "Explode"
    PERFORMER "Necro Facility"
    ISRC SEYFX1100502
    FLAGS DCP
    INDEX 01 00:00:00
FILE "03 - Cuts.flac" WAVE
  TRACK 03 AUDIO
    TITLE "Cuts"
    PERFORMER "Necro Facility"
    ISRC SEYFX1100503
    FLAGS DCP
    INDEX 01 00:00:00
FILE "04 - Do You Feel the Same.flac" WAVE
  TRACK 04 AUDIO
    TITLE "Do You Feel the Same"
    PERFORMER "Necro Facility"
    ISRC SEYFX1100504
    FLAGS DCP
    INDEX 01 00:00:00
FILE "05 - Fall Apart.flac" WAVE
  TRACK 05 AUDIO
    TITLE "Fall Apart"
    PERFORMER "Necro Facility"
    ISRC SEYFX1100505
    FLAGS DCP
    INDEX 01 00:00:00
  TRACK 06 AUDIO
    TITLE "Waiting for the Snow"
    PERFORMER "Necro Facility"
    ISRC SEYFX1100506
    FLAGS DCP
    INDEX 00 04:19:74
FILE "06 - Waiting for the Snow.flac" WAVE
    INDEX 01 00:00:00
  TRACK 07 AUDIO
    TITLE "Ignite"
    PERFORMER "Necro Facility"
    ISRC SEYFX1100507
    FLAGS DCP
    INDEX 00 04:39:58
FILE "07 - Ignite.flac" WAVE
    INDEX 01 00:00:00
FILE "08 - Skrik.flac" WAVE
  TRACK 08 AUDIO
    TITLE "Skrik"
    PERFORMER "Necro Facility"
    ISRC SEYFX1100508
    FLAGS DCP
    INDEX 01 00:00:00
FILE "09 - Supposed.flac" WAVE
  TRACK 09 AUDIO
    TITLE "Supposed"
    PERFORMER "Necro Facility"
    ISRC SEYFX1100509
    FLAGS DCP
    INDEX 01 00:00:00
  TRACK 10 AUDIO
    TITLE "All That You Take"
    PERFORMER "Necro Facility"
    ISRC SEYFX1100510
    FLAGS DCP
    INDEX 00 04:12:69
FILE "10 - All That You Take.flac" WAVE
    INDEX 01 00:00:00
The third album from Sweden's Necro Facility, following their worldwide club hit collaboration with Covenant. Wintermute is simply put an evolution in industrial music, one of the best crafted albums to be recorded in the genre's history. That's a tall statement but for a band that has taken four years to deliver their fourth CD, it's a believable one. Recorded at Lionheart Studios in Stockholm, Wintermute delivers exactly what the industrial genre has been needing. A strong dose of intelligent pop injected into a difficult production that would make Skinny Puppy and Cyberactive swoon. Recording information: Lionheart Studios, Stockholm.
Oscar Holter
Henrik Bäckström
Правила, инструкции, FAQ!!!
Торрент  Добавлен [26 июн 2020, 17:03] Скачать торрент Магнет ссылка
Скачать торрент
[ Размер 13.57 КБ / Просмотров 3 ]

Статус
Проверен 
 
Размер  315.48 МБ
Приватный: Нет (DHT включён)
.torrent скачан  0
 


     Отправить личное сообщение
   
Страница 1 из 1
Показать сообщения за:  Поле сортировки  
Начать новую тему Ответить на тему


Сейчас этот форум просматривают: нет зарегистрированных пользователей и гости: 0


Вы не можете начинать темы
Вы не можете отвечать на сообщения
Вы не можете редактировать свои сообщения
Вы не можете удалять свои сообщения
Вы не можете добавлять вложения

Перейти:  
cron