Начать новую тему Ответить на тему
Статистика раздачи
Размер: 400.61 МБ | Добавлен: 26 июн 2020, 17:00 | Скачали: 0
Сидеров: 0  [0 байт/сек]    Личеров: 0  [0 байт/сек]
Пред. тема | След. тема 

Автор
Сообщение

СообщениеДобавлено: 26 июн 2020, 17:00 

Ответить с цитатой 

Necro Facility - The Black Paintings
Жанр: EBM / Electro / Industrial
Год выпуска диска: 2005
Производитель диска: Sweden
Аудио кодек: APE
Тип рипа: image+.cue
Битрейт аудио: lossless
Продолжительность: 53:06
Трэклист:
1 Intense (5:08)
2 Downstairs (4:32)
3 Freeze (6:09)
4 Methane View (4:51)
5 Ifrit (5:19)
6 Nursed (4:39)
7 Quiet Calls (4:24)
8 Serge Suite (5:00)
9 Dead Ice (4:19)
10 Painted Sky (4:40)
11 Spawn (3:59)
Доп. информация: Progress Productions; PROCD 003
This is a 1000 copy limited release, standard CD edition.
Код:
Exact Audio Copy V0.99 prebeta 4 from 23. January 2008
EAC extraction logfile from 3. December 2008, 15:59
Necro Facility / The Black Paintings
Used drive  : PIONEER DVD-RW  DVR-112D   Adapter: 1  ID: 1
Read mode               : Secure
Utilize accurate stream : Yes
Defeat audio cache      : Yes
Make use of C2 pointers : No
Read offset correction                      : 48
Overread into Lead-In and Lead-Out          : No
Fill up missing offset samples with silence : Yes
Delete leading and trailing silent blocks   : No
Null samples used in CRC calculations       : Yes
Used interface                              : Installed external ASPI interface
Used output format : Internal WAV Routines
Sample format      : 44.100 Hz; 16 Bit; Stereo
TOC of the extracted CD
     Track |   Start  |  Length  | Start sector | End sector
    ---------------------------------------------------------
        1  |  0:00.00 |  5:08.24 |         0  |       23123
        2  |  5:08.24 |  4:32.37 |     23124  |       43560
        3  |  9:40.61 |  6:09.04 |     43561  |       71239
        4  | 15:49.65 |  4:51.18 |     71240  |       93082
        5  | 20:41.08 |  5:19.20 |     93083  |      117027
        6  | 26:00.28 |  4:39.72 |    117028  |      138024
        7  | 30:40.25 |  4:24.00 |    138025  |      157824
        8  | 35:04.25 |  5:00.51 |    157825  |      180375
        9  | 40:05.01 |  4:19.71 |    180376  |      199871
       10  | 44:24.72 |  4:40.00 |    199872  |      220871
       11  | 49:04.72 |  4:00.00 |    220872  |      238871
Range status and errors
Selected range
   Filename J:\Necro Facility - The Black Paintings\CDImage.wav
   Peak level 98.9 %
   Range quality 100.0 %
   Test CRC 8495BD49
   Copy CRC 8495BD49
   Copy OK
No errors occurred
AccurateRip summary
Track  1  not present in database
Track  2  not present in database
Track  3  not present in database
Track  4  not present in database
Track  5  not present in database
Track  6  not present in database
Track  7  not present in database
Track  8  not present in database
Track  9  not present in database
Track 10  not present in database
Track 11  not present in database
None of the tracks are present in the AccurateRip database
End of status report
Код:
AUDIOCHECKER v2.0 beta (build 457) - by Dester - opdester@freemail.hu
~~~~~~~~~~~~~~~~~~~~~~~~~~~~~~~~~~
-=== DO NOT EDIT THIS FILE! ===-
Path: ...\Necro Facility - The Black Paintings
01 -=- CDImage.wav -=- CDDA (100%)
190127764
Правила, инструкции, FAQ!!!
Торрент  Добавлен [26 июн 2020, 17:00] Скачать торрент Магнет ссылка
Скачать торрент
[ Размер 16.51 КБ / Просмотров 5 ]

Статус
Проверен 
 
Размер  400.61 МБ
Приватный: Нет (DHT включён)
.torrent скачан  0
 


     Отправить личное сообщение
   
Страница 1 из 1
Показать сообщения за:  Поле сортировки  
Начать новую тему Ответить на тему


Сейчас этот форум просматривают: нет зарегистрированных пользователей и гости: 1


Вы не можете начинать темы
Вы не можете отвечать на сообщения
Вы не можете редактировать свои сообщения
Вы не можете удалять свои сообщения
Вы не можете добавлять вложения

Перейти:  
cron