Начать новую тему Ответить на тему
Статистика раздачи
Размер: 400.45 МБ | Добавлен: 26 июн 2020, 19:04 | Скачали: 0
Сидеров: 0  [0 байт/сек]    Личеров: 0  [0 байт/сек]
Пред. тема | След. тема 

Автор
Сообщение

СообщениеДобавлено: 26 июн 2020, 19:04 

Ответить с цитатой 

Narr! / Souls are Flying Now !
Жанр: EBM, Electro, Industrial
Страна-производитель диска: Italy
Год издания диска: 2004
Издатель (лейбл): Cursed Land
Номер по каталогу: CRS.01
Страна: Italy
Аудио кодек: FLAC (*.flac)
Тип рипа: image+.cue
Битрейт аудио: lossless
Продолжительность: 00:53:52
Источник (релизер): Рип с личного СД
Наличие сканов в содержимом раздачи: да
Треклист:
01. Souls (5:18)
02. Life! (5:02)
03. Lucretia My Reflection (5:38)
04. Finira! (4:32)
05. Male (5:42)
06. Souls Are Flying Now! (3:41)
07. Universe (4:09)
08. Dream (4:37)
09. Solo... (1:34)
10. Odio! (4:59)
11. Inverse Future Rmx (5:08)
12. Souls in Peace (3:25)
Код:
Exact Audio Copy V0.99 prebeta 5 from 4. May 2009
Отчёт EAC об извлечении, выполненном 16. октября 2010, 21:51
NARR! / Souls are flying now!...
Дисковод: Optiarc DVD RW AD-7201S   Adapter: 2  ID: 1
Режим чтения                 : Достоверность
Использование точного потока : Да
Отключение кэша аудио        : Да
Использование указателей C2  : Нет
Коррекция смещения при чтении                     : 48
Способность читать области Lead-in и Lead-out     : Нет
Заполнение пропущенных сэмплов тишиной            : Да
Удаление блоков с тишиной в начале и конце        : Нет
При вычислениях CRC использовались нулевые сэмплы : Да
Интерфейс                                         : Встроенный Win32-интерфейс для Win
NT/2000
Выходной формат : Внутренние WAV-операции
Формат сэмплов  : 44.100 Гц; 16 бит; стерео
TOC извлечённого CD
     Трек |   Старт  | Длительность | Начальный сектор | Конечный сектор
    ---------------------------------------------------------------------
       1  |  0:00.00 |    5:18.71   |           0      |      23920
       2  |  5:18.71 |    5:02.65   |       23921      |      46635
       3  | 10:21.61 |    5:38.47   |       46636      |      72032
       4  | 16:00.33 |    4:32.70   |       72033      |      92502
       5  | 20:33.28 |    5:42.36   |       92503      |     118188
       6  | 26:15.64 |    3:41.37   |      118189      |     134800
       7  | 29:57.26 |    4:09.37   |      134801      |     153512
       8  | 34:06.63 |    4:37.40   |      153513      |     174327
       9  | 38:44.28 |    1:34.24   |      174328      |     181401
      10  | 40:18.52 |    4:59.65   |      181402      |     203891
      11  | 45:18.42 |    5:08.17   |      203892      |     227008
      12  | 50:26.59 |    3:25.41   |      227009      |     242424
      13  | 56:24.25 |    0:48.13   |      253825      |     257437
Характеристики диапазона извлечения и сообщения об ошибках
Выбранный диапазон
     Имя файла D:\Раздачи\Narr!\NARR! - Souls are flying now!....wav
     Пиковый уровень 100.0 %
     Качество диапазона 99.9 %
     CRC теста 066AE05A
     CRC копии 066AE05A
     Копирование... OK
Ошибок не произошло
AccurateRip: сводка
Трек  1  нет в базе данных
Трек  2  нет в базе данных
Трек  3  нет в базе данных
Трек  4  нет в базе данных
Трек  5  нет в базе данных
Трек  6  нет в базе данных
Трек  7  нет в базе данных
Трек  8  нет в базе данных
Трек  9  нет в базе данных
Трек 10  нет в базе данных
Трек 11  нет в базе данных
Трек 12  нет в базе данных
Ни одного трека нет в базе AccurateRip
Конец отчёта
Код:
Started at: суббота, 16. 10. 2010. - 22:53.38
1 file found
1 -===- D:\Раздачи\Narr!\NARR! - Souls are flying now!.flac
  Extracted successfully
  Conclusion: this track is CDDA with probability 100%
  Tempfile successfully deleted.
Finished at: суббота, 16. 10. 2010. - 22:59.21 (operation time: 0:05.43)
Правила, инструкции, FAQ!!!
Торрент  Добавлен [26 июн 2020, 19:04] Скачать торрент Магнет ссылка
Скачать торрент
[ Размер 16.51 КБ / Просмотров 9 ]

Статус
Проверен 
 
Размер  400.45 МБ
Приватный: Нет (DHT включён)
.torrent скачан  0
 


     Отправить личное сообщение
   
Страница 1 из 1
Показать сообщения за:  Поле сортировки  
Начать новую тему Ответить на тему


Сейчас этот форум просматривают: нет зарегистрированных пользователей и гости: 0


Вы не можете начинать темы
Вы не можете отвечать на сообщения
Вы не можете редактировать свои сообщения
Вы не можете удалять свои сообщения
Вы не можете добавлять вложения

Перейти:  
cron