Начать новую тему Ответить на тему
Статистика раздачи
Размер: 465.33 МБ | Добавлен: 26 июн 2020, 17:32 | Скачали: 0
Сидеров: 0  [0 байт/сек]    Личеров: 0  [0 байт/сек]
Пред. тема | След. тема 

Автор
Сообщение

СообщениеДобавлено: 26 июн 2020, 17:32 

Ответить с цитатой 



Mulphia / Bleeding


Жанр: EBM, Electro, Industrial
Страна-производитель диска: Hungary
Год издания диска: 2008
Издатель (лейбл): Advoxya
Номер по каталогу: ad-hun-16-cd
Страна: Hungary
Аудио кодек: FLAC (*.flac)
Тип рипа: image+.cue
Битрейт аудио: lossless
Продолжительность: 01:07:30
Источник (релизер): Собственный диск
Наличие сканов в содержимом раздачи: нет
Треклист:
01. One Foot In The Grave (Overture Cut)
02. Countthing
03. Feeding Time
04. Lost
05. Voltage
06. Believe (U Fucking Asshole) (Circuit Version)
07. (Take) Your Place
08. Time4
09. Great Disgrace
10. Re-deemer
11. Hellwanted
12. Something Sometimes (2nd Version)
13. Sacrilege
14. Oppressive
15. Erutan
16. Bleeding (Finale Cut)
Код:
Exact Audio Copy V1.0 beta 1 from 15. November 2010
EAC extraction logfile from 22. December 2010, 0:39
Bleeding / Mulphia
Used drive  : HL-DT-STDVDRAM_GH15N   Adapter: 3  ID: 1
Read mode               : Secure
Utilize accurate stream : Yes
Defeat audio cache      : Yes
Make use of C2 pointers : No
Read offset correction                      : 667
Overread into Lead-In and Lead-Out          : No
Fill up missing offset samples with silence : Yes
Delete leading and trailing silent blocks   : No
Null samples used in CRC calculations       : Yes
Used interface                              : Native Win32 interface for Win NT & 2000
Used output format              : User Defined Encoder
Selected bitrate                : 1024 kBit/s
Quality                         : High
Add ID3 tag                     : No
Command line compressor         : C:\Program Files\Exact Audio Copy\Flac\flac.exe
Additional command line options :  -8 -V %s
TOC of the extracted CD
     Track |   Start  |  Length  | Start sector | End sector
    ---------------------------------------------------------
        1  |  0:00.00 |  1:57.12 |         0    |     8786
        2  |  1:57.12 |  4:41.14 |      8787    |    29875
        3  |  6:38.26 |  4:19.02 |     29876    |    49302
        4  | 10:57.28 |  4:37.72 |     49303    |    70149
        5  | 15:35.25 |  4:16.13 |     70150    |    89362
        6  | 19:51.38 |  4:13.38 |     89363    |   108375
        7  | 24:05.01 |  4:01.72 |    108376    |   126522
        8  | 28:06.73 |  3:50.30 |    126523    |   143802
        9  | 31:57.28 |  4:39.57 |    143803    |   164784
       10  | 36:37.10 |  4:12.63 |    164785    |   183747
       11  | 40:49.73 |  5:30.39 |    183748    |   208536
       12  | 46:20.37 |  4:01.72 |    208537    |   226683
       13  | 50:22.34 |  4:31.72 |    226684    |   247080
       14  | 54:54.31 |  4:03.67 |    247081    |   265372
       15  | 58:58.23 |  4:17.42 |    265373    |   284689
       16  | 63:15.65 |  4:13.72 |    284690    |   303736
Range status and errors
Selected range
     Filename C:\Downloads\Bleeding - Mulphia.wav
     Peak level 97.4 %
     Extraction speed 0.4 X
     Range quality 100.0 %
     Copy CRC B44F107C
     Copy OK
No errors occurred
AccurateRip summary
Track  1  not present in database
Track  2  not present in database
Track  3  not present in database
Track  4  not present in database
Track  5  not present in database
Track  6  not present in database
Track  7  not present in database
Track  8  not present in database
Track  9  not present in database
Track 10  not present in database
Track 11  not present in database
Track 12  not present in database
Track 13  not present in database
Track 14  not present in database
Track 15  not present in database
Track 16  not present in database
None of the tracks are present in the AccurateRip database
End of status report
Правила, инструкции, FAQ!!!
Торрент  Добавлен [26 июн 2020, 17:32] Скачать торрент Магнет ссылка
Скачать торрент
[ Размер 18.76 КБ / Просмотров 6 ]

Статус
Проверен 
 
Размер  465.33 МБ
Приватный: Нет (DHT включён)
.torrent скачан  0
 


     Отправить личное сообщение
   
Страница 1 из 1
Показать сообщения за:  Поле сортировки  
Начать новую тему Ответить на тему


Сейчас этот форум просматривают: нет зарегистрированных пользователей и гости: 0


Вы не можете начинать темы
Вы не можете отвечать на сообщения
Вы не можете редактировать свои сообщения
Вы не можете удалять свои сообщения
Вы не можете добавлять вложения

Перейти:  
cron