Начать новую тему Ответить на тему
Статистика раздачи
Размер: 1.03 ГБ | Добавлен: 26 июн 2020, 20:28 | Скачали: 0
Сидеров: 0  [0 байт/сек]    Личеров: 0  [0 байт/сек]
Пред. тема | След. тема 

Автор
Сообщение

СообщениеДобавлено: 26 июн 2020, 20:28 

Ответить с цитатой 

mentallo and the fixer - Enlightenment Through A Chemical Catalyst [2CD LE] 2007
Исполнитель: mentallo and the fixer
Альбом: Enlightenment Through A Chemical Catalyst
Жанр: ebm, electro-industrial
Год выпуска диска: 2007
Производитель диска: Alfa Matrix, BE
Каталог: AM-2076DCD
Страна исполнителя: US
---
Формат: FLAC
Кодек: libFLAC 1.2.1 20070917
Битрейт аудио: lossless
CD ONE:
---
01. Once Upon A Time [2:58]
02. Outside The Pharmacies Of Fairyland [10:52]
03. Amigdula [14:16]
04. Very Sudden Onset Of Incoherence [11:00]
05. Brute Force Uploading [5:45]
06. Coming Apart Perfectly [4:43]
07. Felt So Good That I Cried [7:14]
08. First Flower After The Flood [10:31]
09. Commandments For The Molecular Age [6:13]
CD TWO:
---
01. Brute Force Uploading <intravascular terror> [10:07]
02. Coming Apart Perfectly <psychoactive cacti> [13:51]
03. Brief But Violent Illness <tripping over the bleeding edge> [13:10]
04. Commandments For The Molecular Age <sacramental> [8:33]
05. Russian Roulette With A Research Chemical <waking to the sound of a blood pressure cuff> [17:04]
_____________________
Продолжительность: 02:16:19
Код:
Exact Audio Copy V0.99 prebeta 4 from 23. January 2008
EAC extraction logfile from 4. October 2008, 12:21
mentallo and the fixer / Enlightenment Through A Chemical Catalyst [2CD LE] - DISC 1
Used drive  : TDK     CDRW4800B   Adapter: 0  ID: 1
Read mode               : Secure
Utilize accurate stream : Yes
Defeat audio cache      : Yes
Make use of C2 pointers : No
Read offset correction                      : 6
Overread into Lead-In and Lead-Out          : No
Fill up missing offset samples with silence : Yes
Delete leading and trailing silent blocks   : No
Null samples used in CRC calculations       : Yes
Used interface                              : Installed external ASPI interface
Used output format : Internal WAV Routines
Sample format      : 44.100 Hz; 16 Bit; Stereo
TOC of the extracted CD
     Track |   Start  |  Length  | Start sector | End sector
    ---------------------------------------------------------
        1  |  0:00.00 |  2:58.18 |         0    |    13367
        2  |  2:58.18 | 10:52.02 |     13368    |    62269
        3  | 13:50.20 | 14:16.14 |     62270    |   126483
        4  | 28:06.34 | 10:59.63 |    126484    |   175971
        5  | 39:06.22 |  5:45.35 |    175972    |   201881
        6  | 44:51.57 |  4:42.72 |    201882    |   223103
        7  | 49:34.54 |  7:14.18 |    223104    |   255671
        8  | 56:48.72 | 10:31.18 |    255672    |   303014
        9  | 67:20.15 |  6:13.06 |    303015    |   330995
Range status and errors
Selected range
     Filename E:\!v_o taku\mentallo and the fixer - Enlightenment Through A Chemical Catalyst [2CD LE] - DISC 1.wav
     Peak level 100.0 %
     Range quality 100.0 %
     Test CRC BA1E5C0B
     Copy CRC BA1E5C0B
     Copy OK
No errors occurred
AccurateRip summary
Track  1  accurately ripped (confidence 6)  [3EFD1DC9]
Track  2  accurately ripped (confidence 6)  [5F05D1C2]
Track  3  accurately ripped (confidence 6)  [7459D060]
Track  4  accurately ripped (confidence 6)  [CB52BD39]
Track  5  accurately ripped (confidence 6)  [3246098C]
Track  6  accurately ripped (confidence 6)  [F9A67E1D]
Track  7  accurately ripped (confidence 6)  [A1599992]
Track  8  accurately ripped (confidence 6)  [7ECE1921]
Track  9  accurately ripped (confidence 5)  [AE94232B]
All tracks accurately ripped
End of status report
Код:
Exact Audio Copy V0.99 prebeta 4 from 23. January 2008
EAC extraction logfile from 4. October 2008, 14:16
mentallo and the fixer / Enlightenment Through A Chemical Catalyst [2CD LE] - DISC 2
Used drive  : TDK     CDRW4800B   Adapter: 0  ID: 1
Read mode               : Secure
Utilize accurate stream : Yes
Defeat audio cache      : Yes
Make use of C2 pointers : No
Read offset correction                      : 6
Overread into Lead-In and Lead-Out          : No
Fill up missing offset samples with silence : Yes
Delete leading and trailing silent blocks   : No
Null samples used in CRC calculations       : Yes
Used interface                              : Installed external ASPI interface
Used output format : Internal WAV Routines
Sample format      : 44.100 Hz; 16 Bit; Stereo
TOC of the extracted CD
     Track |   Start  |  Length  | Start sector | End sector
    ---------------------------------------------------------
        1  |  0:00.00 | 10:07.00 |         0    |    45524
        2  | 10:07.00 | 13:51.16 |     45525    |   107865
        3  | 23:58.16 | 13:09.65 |    107866    |   167105
        4  | 37:08.06 |  8:33.09 |    167106    |   205589
        5  | 45:41.15 | 17:04.00 |    205590    |   282389
Range status and errors
Selected range
     Filename E:\!v_o taku\mentallo and the fixer - Enlightenment Through A Chemical Catalyst [2CD LE] - DISC 2.wav
     Peak level 100.0 %
     Range quality 100.0 %
     Test CRC 852BAA3E
     Copy CRC 852BAA3E
     Copy OK
No errors occurred
AccurateRip summary
Track  1  accurately ripped (confidence 5)  [280B1F17]
Track  2  accurately ripped (confidence 5)  [AF328117]
Track  3  accurately ripped (confidence 5)  [9306B7C5]
Track  4  accurately ripped (confidence 5)  [63D1BCDD]
Track  5  accurately ripped (confidence 5)  [2BB89DBD]
All tracks accurately ripped
End of status report
───::::::: http://www.mentallo.net/
::::::: http://www.myspace.com/mentalloandthefixer
::::::: http://www.alfa-matrix.com
::::::: http://www.discogs.com/release/875000
Правила, инструкции, FAQ!!!
Торрент  Добавлен [26 июн 2020, 20:28] Скачать торрент Магнет ссылка
Скачать торрент
[ Размер 14.1 КБ / Просмотров 12 ]

Статус
Проверен 
 
Размер  1.03 ГБ
Приватный: Нет (DHT включён)
.torrent скачан  0
 


     Отправить личное сообщение
   
Страница 1 из 1
Показать сообщения за:  Поле сортировки  
Начать новую тему Ответить на тему


Сейчас этот форум просматривают: нет зарегистрированных пользователей и гости: 0


Вы не можете начинать темы
Вы не можете отвечать на сообщения
Вы не можете редактировать свои сообщения
Вы не можете удалять свои сообщения
Вы не можете добавлять вложения

Перейти:  
cron