Начать новую тему Ответить на тему
Статистика раздачи
Размер: 380.09 МБ | Добавлен: 26 июн 2020, 16:59 | Скачали: 0
Сидеров: 0  [0 байт/сек]    Личеров: 0  [0 байт/сек]
Пред. тема | След. тема 

Автор
Сообщение

СообщениеДобавлено: 26 июн 2020, 16:59 

Ответить с цитатой 

Manhole Vortex - Agents of Goldstein
Жанр: EBM, Electro, Industrial
Носитель: CD
Страна-производитель диска: U.S.
Год издания: 1997
Издатель (лейбл): Arts Industria
Номер по каталогу: AI013
Страна: U.S.
Аудиокодек: FLAC (*.flac)
Тип рипа: image+.cue
Битрейт аудио: lossless
Продолжительность: 00:58:09
Источник (релизер): Rekhyt
Наличие сканов в содержимом раздачи: нет
Треклист:
1. Confession (3:27)
2. Eaten (3:46)
3. M.R.I. (4:15)
4. In the Shadows (4:57)
5. Superhuman Machines (4:18)
6. Storming Heaven (6:16)
7. Guidance (Aghast View Remix) (5:16)
8. Realm of the Senses (4:46)
9. Telepathetik (5:43)
10. Rot In Hell (3:03)
11. Guidance (4:16)
12. Fact (3:27)
13. Time Heals All Wounds (4:41)
Код:
Exact Audio Copy V1.0 beta 3 from 29. August 2011
EAC extraction logfile from 27. November 2012, 3:45
Manhole Vortex / Agents of Goldstein
Used drive  : ATAPI   iHAS424   B   Adapter: 0  ID: 0
Read mode               : Secure
Utilize accurate stream : Yes
Defeat audio cache      : Yes
Make use of C2 pointers : No
Read offset correction                      : 6
Overread into Lead-In and Lead-Out          : No
Fill up missing offset samples with silence : Yes
Delete leading and trailing silent blocks   : No
Null samples used in CRC calculations       : Yes
Used interface                              : Native Win32 interface for Win NT & 2000
Used output format              : User Defined Encoder
Selected bitrate                : 1024 kBit/s
Quality                         : High
Add ID3 tag                     : No
Command line compressor         : C:\Program Files (x86)\Exact Audio Copy\FLAC\FLAC.EXE
Additional command line options : -V -8 -T "Date=%year%" -T "Genre=%genre%" %source%
TOC of the extracted CD
     Track |   Start  |  Length  | Start sector | End sector
    ---------------------------------------------------------
        1  |  0:00.00 |  3:27.08 |         0    |    15532
        2  |  3:27.08 |  3:46.06 |     15533    |    32488
        3  |  7:13.14 |  4:15.17 |     32489    |    51630
        4  | 11:28.31 |  4:57.14 |     51631    |    73919
        5  | 16:25.45 |  4:17.62 |     73920    |    93256
        6  | 20:43.32 |  6:15.71 |     93257    |   121452
        7  | 26:59.28 |  5:15.45 |    121453    |   145122
        8  | 32:14.73 |  4:45.52 |    145123    |   166549
        9  | 37:00.50 |  5:42.63 |    166550    |   192262
       10  | 42:43.38 |  3:02.40 |    192263    |   205952
       11  | 45:46.03 |  4:16.14 |    205953    |   225166
       12  | 50:02.17 |  3:26.46 |    225167    |   240662
       13  | 53:28.63 |  4:40.71 |    240663    |   261733
Range status and errors
Selected range
     Filename E:\Downloads\Manhole Vortex\Manhole Vortex - Agents of Goldstein\Manhole Vortex - Agents of Goldstein.wav
     Peak level 98.0 %
     Extraction speed 4.4 X
     Range quality 100.0 %
     Test CRC 8A4F18BD
     Copy CRC 8A4F18BD
     Copy OK
No errors occurred
AccurateRip summary
Track  1  not present in database
Track  2  not present in database
Track  3  not present in database
Track  4  not present in database
Track  5  not present in database
Track  6  not present in database
Track  7  not present in database
Track  8  not present in database
Track  9  not present in database
Track 10  not present in database
Track 11  not present in database
Track 12  not present in database
Track 13  not present in database
None of the tracks are present in the AccurateRip database
End of status report
==== Log checksum 7ED453BC1DAA0D1823BFF7F4377CB862FD91D20E9C6CAB7EC1700B16375E1C91 ====
Код:
REM DATE 1997
REM DISCID A50DA10D
REM COMMENT "ExactAudioCopy v1.0b3"
PERFORMER "Manhole Vortex"
TITLE "Agents of Goldstein"
FILE "Manhole Vortex - Agents of Goldstein.flac" WAVE
  TRACK 01 AUDIO
    TITLE "Confession"
    PERFORMER "Manhole Vortex"
    FLAGS DCP
    INDEX 01 00:00:00
  TRACK 02 AUDIO
    TITLE "Eaten"
    PERFORMER "Manhole Vortex"
    FLAGS DCP
    INDEX 00 03:25:08
    INDEX 01 03:27:08
  TRACK 03 AUDIO
    TITLE "M.R.I."
    PERFORMER "Manhole Vortex"
    FLAGS DCP
    INDEX 00 07:11:14
    INDEX 01 07:13:14
  TRACK 04 AUDIO
    TITLE "In the Shadows"
    PERFORMER "Manhole Vortex"
    FLAGS DCP
    INDEX 00 11:26:31
    INDEX 01 11:28:31
  TRACK 05 AUDIO
    TITLE "Superhuman Machines"
    PERFORMER "Manhole Vortex"
    FLAGS DCP
    INDEX 00 16:23:45
    INDEX 01 16:25:45
  TRACK 06 AUDIO
    TITLE "Storming Heaven"
    PERFORMER "Manhole Vortex"
    FLAGS DCP
    INDEX 00 20:41:32
    INDEX 01 20:43:32
  TRACK 07 AUDIO
    TITLE "Guidance (Aghast View Remix)"
    PERFORMER "Manhole Vortex"
    FLAGS DCP
    INDEX 00 26:57:28
    INDEX 01 26:59:28
  TRACK 08 AUDIO
    TITLE "Realm of the Senses"
    PERFORMER "Manhole Vortex"
    FLAGS DCP
    INDEX 00 32:12:73
    INDEX 01 32:14:73
  TRACK 09 AUDIO
    TITLE "Telepathetik"
    PERFORMER "Manhole Vortex"
    FLAGS DCP
    INDEX 00 36:58:50
    INDEX 01 37:00:50
  TRACK 10 AUDIO
    TITLE "Rot In Hell"
    PERFORMER "Manhole Vortex"
    FLAGS DCP
    INDEX 00 42:41:38
    INDEX 01 42:43:38
  TRACK 11 AUDIO
    TITLE "Guidance"
    PERFORMER "Manhole Vortex"
    FLAGS DCP
    INDEX 00 45:44:03
    INDEX 01 45:46:03
  TRACK 12 AUDIO
    TITLE "Fact"
    PERFORMER "Manhole Vortex"
    FLAGS DCP
    INDEX 00 50:00:17
    INDEX 01 50:02:17
  TRACK 13 AUDIO
    TITLE "Time Heals All Wounds"
    PERFORMER "Manhole Vortex"
    FLAGS DCP
    INDEX 00 53:26:63
    INDEX 01 53:28:63
Код:
AUDIOCHECKER v2.0 beta (build 457) - by Dester - opdester@freemail.hu
~~~~~~~~~~~~~~~~~~~~~~~~~~~~~~~~~~
-=== DO NOT EDIT THIS FILE! ===-
Path: ...\Manhole Vortex - Agents of Goldstein
1 -=- Manhole Vortex - Agents of Goldstein.flac -=- CDDA (100%)
258840340
http://www.discogs.com/artist/Manhole+Vortex (manually put in URL / вручную положить в URL)
http://www.discogs.com/Manhole-Vortex-Agents-Of-Goldstein/release/3506408 (manually put in URL / вручную положить в URL)
Правила, инструкции, FAQ!!!
Торрент  Добавлен [26 июн 2020, 16:59] Скачать торрент Магнет ссылка
Скачать торрент
[ Размер 15.56 КБ / Просмотров 3 ]

Статус
Проверен 
 
Размер  380.09 МБ
Приватный: Нет (DHT включён)
.torrent скачан  0
 


     Отправить личное сообщение
   
Страница 1 из 1
Показать сообщения за:  Поле сортировки  
Начать новую тему Ответить на тему


Сейчас этот форум просматривают: нет зарегистрированных пользователей и гости: 0


Вы не можете начинать темы
Вы не можете отвечать на сообщения
Вы не можете редактировать свои сообщения
Вы не можете удалять свои сообщения
Вы не можете добавлять вложения

Перейти:  
cron