Начать новую тему Ответить на тему
Статистика раздачи
Размер: 381.39 МБ | Добавлен: 26 июн 2020, 17:44 | Скачали: 0
Сидеров: 0  [0 байт/сек]    Личеров: 0  [0 байт/сек]
Пред. тема | След. тема 

Автор
Сообщение

СообщениеДобавлено: 26 июн 2020, 17:44 

Ответить с цитатой 

Life Cried - Drawn + Quartered
Жанр: EBM, Electro, Industrial
Год выпуска диска: 2006
Производитель диска: Германия
Аудио кодек: FLAC
Тип рипа: tracks+.cue
Битрейт аудио: lossless
Трэклист:
01 Stale (4:38)
02 Hallowed Be Thy Name (4:27)
03 As We Decay (5:06)
04 Living Hell (4:33)
05 Rage (Dying Existence) (5:40)
06 Guardian (5:10)
07 Burnt To Ashes (3:20)
08 Sacrilege (5:08)
09 Waiting For An End (3:43)
10 Darkest Eyes (5:36)
Код:
Exact Audio Copy V0.99 prebeta 3 from 28. July 2007
EAC extraction logfile from 3. March 2008, 17:36
Life Cried / Drawn and Quartered
Used drive  : LITE-ON DVDRW SHW-1635S   Adapter: 1  ID: 0
Read mode               : Secure
Utilize accurate stream : Yes
Defeat audio cache      : Yes
Make use of C2 pointers : No
Read offset correction                      : 6
Overread into Lead-In and Lead-Out          : No
Fill up missing offset samples with silence : Yes
Delete leading and trailing silent blocks   : No
Null samples used in CRC calculations       : Yes
Used interface                              : Installed external ASPI interface
Gap handling                                : Appended to previous track
Used output format              : User Defined Encoder
Selected bitrate                : 192 kBit/s
Quality                         : High
Add ID3 tag                     : No
Command line compressor         : C:\Program Files\Exact Audio Copy\Flac\flac.exe
Additional command line options : -8 -A tukey(0.25) -A gauss(0.1875) -b 4096 -V -T "artist=%a" -T "title=%t" -T "album=%g" -T "date=%y" -T "tracknumber=%n" -T "genre=%m" %s --sector-align
TOC of the extracted CD
     Track |   Start  |  Length  | Start sector | End sector
    ---------------------------------------------------------
        1  |  0:00.00 |  4:38.46 |         0    |    20895
        2  |  4:38.46 |  4:27.29 |     20896    |    40949
        3  |  9:06.00 |  5:06.07 |     40950    |    63906
        4  | 14:12.07 |  4:33.38 |     63907    |    84419
        5  | 18:45.45 |  5:40.16 |     84420    |   109935
        6  | 24:25.61 |  5:10.31 |    109936    |   133216
        7  | 29:36.17 |  3:20.29 |    133217    |   148245
        8  | 32:56.46 |  5:08.01 |    148246    |   171346
        9  | 38:04.47 |  3:43.42 |    171347    |   188113
       10  | 41:48.14 |  5:36.70 |    188114    |   213383
Track  1
     Filename M:\L\Life Cried\Life_Cried-Drawn_And_Quartered-2006-FLAC\01 - Life Cried - Stale.wav
     Pre-gap length  0:00:02.00
     Peak level 99.0 %
     Track quality 100.0 %
     Test CRC BAEF775E
     Copy CRC BAEF775E
     Copy OK
Track  2
     Filename M:\L\Life Cried\Life_Cried-Drawn_And_Quartered-2006-FLAC\02 - Life Cried - Hallowed Be Thy Name.wav
     Pre-gap length  0:00:02.00
     Peak level 99.0 %
     Track quality 100.0 %
     Test CRC 40CD82D5
     Copy CRC 40CD82D5
     Copy OK
Track  3
     Filename M:\L\Life Cried\Life_Cried-Drawn_And_Quartered-2006-FLAC\03 - Life Cried - As We Decay.wav
     Pre-gap length  0:00:02.00
     Peak level 97.8 %
     Track quality 100.0 %
     Test CRC 4F611A6C
     Copy CRC 4F611A6C
     Copy OK
Track  4
     Filename M:\L\Life Cried\Life_Cried-Drawn_And_Quartered-2006-FLAC\04 - Life Cried - Living Hell.wav
     Pre-gap length  0:00:02.00
     Peak level 97.6 %
     Track quality 100.0 %
     Test CRC 614B4A41
     Copy CRC 614B4A41
     Copy OK
Track  5
     Filename M:\L\Life Cried\Life_Cried-Drawn_And_Quartered-2006-FLAC\05 - Life Cried - Rage (Dying Existence).wav
     Pre-gap length  0:00:02.00
     Peak level 99.0 %
     Track quality 100.0 %
     Test CRC 3BB4EEEE
     Copy CRC 3BB4EEEE
     Copy OK
Track  6
     Filename M:\L\Life Cried\Life_Cried-Drawn_And_Quartered-2006-FLAC\06 - Life Cried - Guardian.wav
     Pre-gap length  0:00:02.00
     Peak level 97.7 %
     Track quality 100.0 %
     Test CRC D95E1329
     Copy CRC D95E1329
     Copy OK
Track  7
     Filename M:\L\Life Cried\Life_Cried-Drawn_And_Quartered-2006-FLAC\07 - Life Cried - Burnt To Ashes.wav
     Pre-gap length  0:00:02.00
     Peak level 97.7 %
     Track quality 100.0 %
     Test CRC 2FB82330
     Copy CRC 2FB82330
     Copy OK
Track  8
     Filename M:\L\Life Cried\Life_Cried-Drawn_And_Quartered-2006-FLAC\08 - Life Cried - Sacrilege.wav
     Pre-gap length  0:00:02.00
     Peak level 97.8 %
     Track quality 100.0 %
     Test CRC 861FBA1B
     Copy CRC 861FBA1B
     Copy OK
Track  9
     Filename M:\L\Life Cried\Life_Cried-Drawn_And_Quartered-2006-FLAC\09 - Life Cried - Waiting For An End.wav
     Pre-gap length  0:00:02.00
     Peak level 97.7 %
     Track quality 100.0 %
     Test CRC 6B163B93
     Copy CRC 6B163B93
     Copy OK
Track 10
     Filename M:\L\Life Cried\Life_Cried-Drawn_And_Quartered-2006-FLAC\10 - Life Cried - Darkest Eyes.wav
     Pre-gap length  0:00:02.00
     Peak level 97.6 %
     Track quality 100.0 %
     Test CRC 854DD9FB
     Copy CRC 854DD9FB
     Copy OK
No errors occurred
End of status report
Доп. информация: HQ SCANS внутри
Правила, инструкции, FAQ!!!
Торрент  Добавлен [26 июн 2020, 17:44] Скачать торрент Магнет ссылка
Скачать торрент
[ Размер 16.6 КБ / Просмотров 12 ]

Статус
Проверен 
 
Размер  381.39 МБ
Приватный: Нет (DHT включён)
.torrent скачан  0
 


     Отправить личное сообщение
   
Страница 1 из 1
Показать сообщения за:  Поле сортировки  
Начать новую тему Ответить на тему


Сейчас этот форум просматривают: нет зарегистрированных пользователей и гости: 0


Вы не можете начинать темы
Вы не можете отвечать на сообщения
Вы не можете редактировать свои сообщения
Вы не можете удалять свои сообщения
Вы не можете добавлять вложения

Перейти:  
cron