Начать новую тему Ответить на тему
Статистика раздачи
Размер: 340.54 МБ | Добавлен: 26 июн 2020, 17:41 | Скачали: 0
Сидеров: 1  [0 байт/сек]    Личеров: 0  [0 байт/сек]
Пред. тема | След. тема 

Автор
Сообщение

СообщениеДобавлено: 26 июн 2020, 17:41 

Ответить с цитатой 

Life Cried / Banished Psalms
Жанр: EBM, Electro, Industrial
Страна-производитель диска: Germany
Год издания диска: 2009
Издатель (лейбл): NoiTekk
Номер по каталогу: NTK 034
Страна: US
Аудио кодек: FLAC (*.flac)
Тип рипа: tracks+.cue
Битрейт аудио: lossless
Продолжительность: 45:17
Источник (релизер): CD-R
Наличие сканов в содержимом раздачи: нет
Треклист:
1 Another Sacrifice 3:54
2 Bloodstained 5:18
3 Dressed In Filth 4:30
4 Bound In Hate 4:38
5 Alone 1:28
6 Preacher 7:09
7 More To Tarnish 5:29
8 Procession, Rigor Mortis 1:10
9 Solemn 5:05
10 Forbidden 4:44
11 Derelict 1:47
Код:
Exact Audio Copy V0.99 prebeta 5 from 4. May 2009
EAC extraction logfile from 31. December 2010, 22:51
Life Cried / Banished Psalms
Used drive  : PIONEER DVD-RW  DVR-216D   Adapter: 0  ID: 0
Read mode               : Secure
Utilize accurate stream : Yes
Defeat audio cache      : Yes
Make use of C2 pointers : No
Read offset correction                      : 96
Overread into Lead-In and Lead-Out          : No
Fill up missing offset samples with silence : Yes
Delete leading and trailing silent blocks   : No
Null samples used in CRC calculations       : Yes
Used interface                              : Native Win32 interface for Win NT & 2000
Gap handling                                : Appended to previous track
Used output format              : User Defined Encoder
Selected bitrate                : 1024 kBit/s
Quality                         : High
Add ID3 tag                     : No
Command line compressor         : C:\Program Files (x86)\Exact Audio Copy\Flac\flac.exe
Additional command line options : -8 -V -T "ARTIST=%a" -T "TITLE=%t" -T "ALBUM=%g" -T "DATE=%y" -T "TRACKNUMBER=%n" -T "GENRE=%m" -T "COMMENT=EAC FLAC -8" %s
TOC of the extracted CD
     Track |   Start  |  Length  | Start sector | End sector
    ---------------------------------------------------------
        1  |  0:00.00 |  3:54.14 |         0    |    17563
        2  |  3:54.14 |  5:18.60 |     17564    |    41473
        3  |  9:12.74 |  4:30.19 |     41474    |    61742
        4  | 13:43.18 |  4:38.35 |     61743    |    82627
        5  | 18:21.53 |  1:28.62 |     82628    |    89289
        6  | 19:50.40 |  7:09.07 |     89290    |   121471
        7  | 26:59.47 |  5:29.16 |    121472    |   146162
        8  | 32:28.63 |  1:10.30 |    146163    |   151442
        9  | 33:39.18 |  5:05.26 |    151443    |   174343
       10  | 38:44.44 |  4:44.47 |    174344    |   195690
       11  | 43:29.16 |  1:47.71 |    195691    |   203786
Track  1
     Filename I:\Audio\TORRENTS\Life Cried - Banished Psalms-2009\tracks\ 01. Life Cried – Another Sacrifice.wav
     Pre-gap length  0:00:02.00
     Peak level 98.9 %
     Track quality 100.0 %
     Test CRC 487E1B0A
     Copy CRC 487E1B0A
     Cannot be verified as accurate (confidence 1)  [C6760480], AccurateRip returned [37DD3045]
     Copy OK
Track  2
     Filename I:\Audio\TORRENTS\Life Cried - Banished Psalms-2009\tracks\ 02. Life Cried – Bloodstained.wav
     Peak level 98.9 %
     Track quality 99.9 %
     Test CRC 3EEC5B5D
     Copy CRC 3EEC5B5D
     Cannot be verified as accurate (confidence 1)  [F48DF213], AccurateRip returned [4A7EF949]
     Copy OK
Track  3
     Filename I:\Audio\TORRENTS\Life Cried - Banished Psalms-2009\tracks\ 03. Life Cried – Dressed In Filth.wav
     Peak level 98.9 %
     Track quality 100.0 %
     Test CRC 936CB5EB
     Copy CRC 936CB5EB
     Cannot be verified as accurate (confidence 1)  [AEFD3D2F], AccurateRip returned [59CDB9B5]
     Copy OK
Track  4
     Filename I:\Audio\TORRENTS\Life Cried - Banished Psalms-2009\tracks\ 04. Life Cried – Bound In Hate.wav
     Peak level 98.9 %
     Track quality 100.0 %
     Test CRC C64B91E6
     Copy CRC C64B91E6
     Cannot be verified as accurate (confidence 1)  [1E4C6E0A], AccurateRip returned [19CF5BFC]
     Copy OK
Track  5
     Filename I:\Audio\TORRENTS\Life Cried - Banished Psalms-2009\tracks\ 05. Life Cried – Alone.wav
     Peak level 78.5 %
     Track quality 100.0 %
     Test CRC 64ACC713
     Copy CRC 64ACC713
     Cannot be verified as accurate (confidence 1)  [15F8EE7D], AccurateRip returned [42E80B75]
     Copy OK
Track  6
     Filename I:\Audio\TORRENTS\Life Cried - Banished Psalms-2009\tracks\ 06. Life Cried – Preacher.wav
     Peak level 98.9 %
     Track quality 100.0 %
     Test CRC B4AB6AC2
     Copy CRC B4AB6AC2
     Cannot be verified as accurate (confidence 1)  [C8977642], AccurateRip returned [DA8A0B06]
     Copy OK
Track  7
     Filename I:\Audio\TORRENTS\Life Cried - Banished Psalms-2009\tracks\ 07. Life Cried – More To Tarnish.wav
     Peak level 98.9 %
     Track quality 100.0 %
     Test CRC 46CFADBE
     Copy CRC 46CFADBE
     Cannot be verified as accurate (confidence 1)  [9FDF61D8], AccurateRip returned [4EC60062]
     Copy OK
Track  8
     Filename I:\Audio\TORRENTS\Life Cried - Banished Psalms-2009\tracks\ 08. Life Cried – Procession, Rigor Mortis.wav
     Peak level 78.3 %
     Track quality 99.8 %
     Test CRC 4D160DB5
     Copy CRC 4D160DB5
     Cannot be verified as accurate (confidence 1)  [965B983F], AccurateRip returned [D7DF220D]
     Copy OK
Track  9
     Filename I:\Audio\TORRENTS\Life Cried - Banished Psalms-2009\tracks\ 09. Life Cried – Solemn.wav
     Peak level 97.7 %
     Track quality 100.0 %
     Test CRC 404AD9A9
     Copy CRC 404AD9A9
     Cannot be verified as accurate (confidence 1)  [122AB812], AccurateRip returned [AB41669C]
     Copy OK
Track 10
     Filename I:\Audio\TORRENTS\Life Cried - Banished Psalms-2009\tracks\ 10. Life Cried – Forbidden.wav
     Peak level 98.9 %
     Track quality 100.0 %
     Test CRC 609FC987
     Copy CRC 609FC987
     Cannot be verified as accurate (confidence 1)  [DE50AA06], AccurateRip returned [48A5FE0E]
     Copy OK
Track 11
     Filename I:\Audio\TORRENTS\Life Cried - Banished Psalms-2009\tracks\ 11. Life Cried – Derelict.wav
     Peak level 86.1 %
     Track quality 99.9 %
     Test CRC 5CCB09FE
     Copy CRC 5CCB09FE
     Cannot be verified as accurate (confidence 1)  [7FD58CCB], AccurateRip returned [69761A26]
     Copy OK
No tracks could be verified as accurate
You may have a different pressing from the one(s) in the database
No errors occurred
End of status report
Код:
REM GENRE Electronic
REM DATE 2009
REM DISCID 710A9D0B
REM COMMENT "ExactAudioCopy v0.99pb5"
PERFORMER "Life Cried"
TITLE "Banished Psalms"
FILE " 01. Life Cried – Another Sacrifice.wav" WAVE
  TRACK 01 AUDIO
    TITLE "Another Sacrifice "
    PERFORMER "Life Cried"
    INDEX 01 00:00:00
FILE " 02. Life Cried – Bloodstained.wav" WAVE
  TRACK 02 AUDIO
    TITLE "Bloodstained "
    PERFORMER "Life Cried"
    INDEX 01 00:00:00
FILE " 03. Life Cried – Dressed In Filth.wav" WAVE
  TRACK 03 AUDIO
    TITLE "Dressed In Filth "
    PERFORMER "Life Cried"
    INDEX 01 00:00:00
FILE " 04. Life Cried – Bound In Hate.wav" WAVE
  TRACK 04 AUDIO
    TITLE "Bound In Hate "
    PERFORMER "Life Cried"
    INDEX 01 00:00:00
FILE " 05. Life Cried – Alone.wav" WAVE
  TRACK 05 AUDIO
    TITLE "Alone "
    PERFORMER "Life Cried"
    INDEX 01 00:00:00
FILE " 06. Life Cried – Preacher.wav" WAVE
  TRACK 06 AUDIO
    TITLE "Preacher "
    PERFORMER "Life Cried"
    INDEX 01 00:00:00
FILE " 07. Life Cried – More To Tarnish.wav" WAVE
  TRACK 07 AUDIO
    TITLE "More To Tarnish "
    PERFORMER "Life Cried"
    INDEX 01 00:00:00
FILE " 08. Life Cried – Procession, Rigor Mortis.wav" WAVE
  TRACK 08 AUDIO
    TITLE "Procession, Rigor Mortis "
    PERFORMER "Life Cried"
    INDEX 01 00:00:00
FILE " 09. Life Cried – Solemn.wav" WAVE
  TRACK 09 AUDIO
    TITLE "Solemn "
    PERFORMER "Life Cried"
    INDEX 01 00:00:00
FILE " 10. Life Cried – Forbidden.wav" WAVE
  TRACK 10 AUDIO
    TITLE "Forbidden "
    PERFORMER "Life Cried"
    INDEX 01 00:00:00
FILE " 11. Life Cried – Derelict.wav" WAVE
  TRACK 11 AUDIO
    TITLE "Derelict "
    PERFORMER "Life Cried"
    INDEX 01 00:00:00
Код:
Started at: пятница, 31. 12. 2010. - 21:54.12
11 files found
01 -===- track 1 in drive PIONEER DVD-RW  DVR-216D
  Track ripped successfully
  Conclusion: this track is CDDA with probability 99%
  Tempfile successfully deleted.
02 -===- track 2 in drive PIONEER DVD-RW  DVR-216D
  Track ripped successfully
  Conclusion: this track is CDDA with probability 100%
  Tempfile successfully deleted.
03 -===- track 3 in drive PIONEER DVD-RW  DVR-216D
  Track ripped successfully
  Conclusion: this track is CDDA with probability 100%
  Tempfile successfully deleted.
04 -===- track 4 in drive PIONEER DVD-RW  DVR-216D
  Track ripped successfully
  Conclusion: this track is CDDA with probability 100%
  Tempfile successfully deleted.
05 -===- track 5 in drive PIONEER DVD-RW  DVR-216D
  Track ripped successfully
  Conclusion: this track is CDDA with probability 100%
  Tempfile successfully deleted.
06 -===- track 6 in drive PIONEER DVD-RW  DVR-216D
  Track ripped successfully
  Conclusion: this track is CDDA with probability 100%
  Tempfile successfully deleted.
07 -===- track 7 in drive PIONEER DVD-RW  DVR-216D
  Track ripped successfully
  Conclusion: this track is CDDA with probability 100%
  Tempfile successfully deleted.
08 -===- track 8 in drive PIONEER DVD-RW  DVR-216D
  Track ripped successfully
  Conclusion: this track is CDDA with probability 100%
  Tempfile successfully deleted.
09 -===- track 9 in drive PIONEER DVD-RW  DVR-216D
  Track ripped successfully
  Conclusion: this track is CDDA with probability 100%
  Tempfile successfully deleted.
10 -===- track 10 in drive PIONEER DVD-RW  DVR-216D
  Track ripped successfully
  Conclusion: this track is CDDA with probability 100%
  Tempfile successfully deleted.
11 -===- track 11 in drive PIONEER DVD-RW  DVR-216D
  Track ripped successfully
  Conclusion: this track is CDDA with probability 100%
  Tempfile successfully deleted.
Finished at: пятница, 31. 12. 2010. - 22:01.17 (operation time: 0:07.05)


Доп. информация: http://www.discogs.com/Life-Cried-Banished-Psalms/release/1806262
http://www.myspace.com/lifecried
Chris Reject
Правила, инструкции, FAQ!!!
Торрент  Добавлен [26 июн 2020, 17:41] Скачать торрент Магнет ссылка
Скачать торрент
[ Размер 15.21 КБ / Просмотров 10 ]

Статус
Проверен 
 
Размер  340.54 МБ
Приватный: Нет (DHT включён)
.torrent скачан  0
 


     Отправить личное сообщение
   
Страница 1 из 1
Показать сообщения за:  Поле сортировки  
Начать новую тему Ответить на тему


Сейчас этот форум просматривают: нет зарегистрированных пользователей и гости: 0


Вы не можете начинать темы
Вы не можете отвечать на сообщения
Вы не можете редактировать свои сообщения
Вы не можете удалять свои сообщения
Вы не можете добавлять вложения

Перейти:  
cron