Начать новую тему Ответить на тему
Статистика раздачи
Размер: 1.88 ГБ | Добавлен: 26 июн 2020, 20:12 | Скачали: 0
Сидеров: 0  [0 байт/сек]    Личеров: 0  [0 байт/сек]
Пред. тема | След. тема 

Автор
Сообщение

СообщениеДобавлено: 26 июн 2020, 20:12 

Ответить с цитатой 

LEÆTHER STRIP - Mental Slavery (3 CD LIMITED BOX) + Mental Recovery
#777#777#777Жанр: EBM ELECTRO INDUSTRIAL
Страна-производитель диска: Бельгия
Год издания диска: 2010
Издатель (лейбл): Alfa Matrix
Номер по каталогу: AM2152TCD
Аудио кодек: FLAC (*.flac)
Тип рипа: image+.cue
Битрейт аудио: lossless
Источник (релизер): 3 CD + Download card
Наличие сканов в содержимом раздачи: да
Треклист:
CD1 – Mental Slavery
1.Introvert
2.Turmoil (fuel for fascism)
3.My shadow is your home
4.I feel human
5.State of mind control
6.Invade my body
7.Out there
8.Abusive
9.Your god has left you tonight
10.Closer to the pulse beat
11.It's the end
12.No entry no exit
13.Thirty-seven point one
14.Strobe lights
15.Frankfurt noir
16.Invade my body (Bær Body Music mix)
CD2 – Mental Slavery
1.Grab it now
2.We build the walls
3.Slow
4.Battle mind
5.Dead soil
6.Song for Pia
7.What have i done? (feat. Andi Sex Gang)
8.H. C. Ørsted
9.Out there (Tunguska version)
10.My funeral
11.I watch you fall
12.Abscido
13.Song for Pia (acoustic version feat. Jim Cookas)
14.The Bears aren't sleeping tonight (Dance mix)
CD3 - Mental Disturbance (bonus album only available with the limited box edition of "Mental Slavery")
1.Grab It Now (Sebastian Komor remix)
2.Battle mind (Kant Kino remix)
3.It’s The End (Pink Industrial Whores remix)
4.Introvert (Portion Control remix)
5.Turmoil (Halo in reverse remix)
6.Invade My Body (Kant Kino remix)
7.State Of Mind Control (Project-X remix)
8.Invade My Body (Titans remix)
9.Turmoil (Autodafeh remix)
10.Slow (Psy’Aviah remix)
11.Introvert (Erektor remix)
12.It`s who I am (E-Craft remix)
13.Invade My Body (Exzakt & Rubberdoll remix)
14.Battle mind (Spark! remix)
15.Your God has left you tonight (Suessenborn Sinessence remix)
16.The Bears Aren't Sleeping Tonight (Notch Sexuality remix)
17.Slow (Advent Resilience remix)
Bonus download card – "Mental Recovery" (MP3, 320 кбит/сек, 48 кГц)
1.Slow (CERVELLO ELETTRONICO remix)
2.No entry no exit (CONTROLLED FUSION remix)
3.Strap me down (P.N.E remix)
4.Your God has left you tonight (amGod remix)
5.State of mind control (ESSENCE OF MIND remix)
6.The Bears aren't sleeping tonight (QUEER CUM remix)
7.Body Machine Body (FREAKANGEL remix)
8.No entry no exit (STERIL remix)
9.Invade my body (DIE-6 remix)
10.The Bears aren't sleeping tonight (ACYLUM feat. HausHetaere remix)
11.Your God has left you tonight (DUNKELWERK remix)
12.Battlemind (PETER SEQUENCE remix)
13.Body Machine Body (RED INDUSTRIE remix)
14.The Bears aren't sleeping tonight (GAYTRON remix)
15.Turmoil (NEIKKA RPM remix)
16.State of mind control (SOLITARY EXPERIMENTS remix)
17.Introvert (PROJECT-X remix)
18.Strap me down (RAZORFADE remix)
19.Invade my body (PETER SEQUENCE remix)
Код:
Exact Audio Copy V0.99 prebeta 5 from 4. May 2009
Отчёт EAC об извлечении, выполненном 6. октября 2010, 0:11
Leaether Strip / Mental Slavery
Дисковод: HL-DT-STDVDRAM GT10N   Adapter: 3  ID: 0
Режим чтения                 : Достоверность
Использование точного потока : Да
Отключение кэша аудио        : Да
Использование указателей C2  : Нет
Коррекция смещения при чтении                     : 102
Способность читать области Lead-in и Lead-out     : Нет
Заполнение пропущенных сэмплов тишиной            : Да
Удаление блоков с тишиной в начале и конце        : Нет
При вычислениях CRC использовались нулевые сэмплы : Да
Интерфейс                                         : Встроенный Win32-интерфейс для Win NT/2000
Выходной формат          : Пользовательский кодировщик
Выбранный битрейт        : 1024 kBit/s
Качество                 : Высокий
Добавление ID3-тэга      : Нет
Утилита сжатия           : C:\Program Files\Exact Audio Copy\Flac\flac.exe
Дополнительные параметры : -8 -V %s
TOC извлечённого CD
     Трек |   Старт  | Длительность | Начальный сектор | Конечный сектор
    ---------------------------------------------------------------------
       1  |  0:00.00 |    3:59.20   |           0      |      17944
       2  |  3:59.20 |    4:45.50   |       17945      |      39369
       3  |  8:44.70 |    6:07.50   |       39370      |      66944
       4  | 14:52.45 |    4:58.00   |       66945      |      89294
       5  | 19:50.45 |    4:58.00   |       89295      |     111644
       6  | 24:48.45 |    4:51.17   |      111645      |     133486
       7  | 29:39.62 |    5:50.05   |      133487      |     159741
       8  | 35:29.67 |    4:24.52   |      159742      |     179593
       9  | 39:54.44 |    5:08.16   |      179594      |     202709
      10  | 45:02.60 |    4:30.03   |      202710      |     222962
      11  | 49:32.63 |    4:10.55   |      222963      |     241767
      12  | 53:43.43 |    4:58.28   |      241768      |     264145
      13  | 58:41.71 |    5:06.20   |      264146      |     287115
      14  | 63:48.16 |    5:08.36   |      287116      |     310251
      15  | 68:56.52 |    2:04.36   |      310252      |     319587
      16  | 71:01.13 |    6:06.09   |      319588      |     347046
Характеристики диапазона извлечения и сообщения об ошибках
Выбранный диапазон
     Имя файла C:\Program Files\Exact Audio Copy\Flac\Leaether Strip - Mental Slavery.wav
     Пиковый уровень 100.0 %
     Качество диапазона 99.9 %
     CRC теста 058716E9
     CRC копии 058716E9
     Копирование... OK
Ошибок не произошло
AccurateRip: сводка
Трек  1  нет в базе данных
Трек  2  нет в базе данных
Трек  3  нет в базе данных
Трек  4  нет в базе данных
Трек  5  нет в базе данных
Трек  6  нет в базе данных
Трек  7  нет в базе данных
Трек  8  нет в базе данных
Трек  9  нет в базе данных
Трек 10  нет в базе данных
Трек 11  нет в базе данных
Трек 12  нет в базе данных
Трек 13  нет в базе данных
Трек 14  нет в базе данных
Трек 15  нет в базе данных
Трек 16  нет в базе данных
Ни одного трека нет в базе AccurateRip
Конец отчёта
Exact Audio Copy V0.99 prebeta 5 from 4. May 2009
Отчёт EAC об извлечении, выполненном 6. октября 2010, 3:47
Leaether Strip / Mental Slavery
Дисковод: HL-DT-STDVDRAM GT10N   Adapter: 3  ID: 0
Режим чтения                 : Достоверность
Использование точного потока : Да
Отключение кэша аудио        : Да
Использование указателей C2  : Нет
Коррекция смещения при чтении                     : 102
Способность читать области Lead-in и Lead-out     : Нет
Заполнение пропущенных сэмплов тишиной            : Да
Удаление блоков с тишиной в начале и конце        : Нет
При вычислениях CRC использовались нулевые сэмплы : Да
Интерфейс                                         : Встроенный Win32-интерфейс для Win NT/2000
Выходной формат          : Пользовательский кодировщик
Выбранный битрейт        : 1024 kBit/s
Качество                 : Высокий
Добавление ID3-тэга      : Нет
Утилита сжатия           : C:\Program Files\Exact Audio Copy\Flac\flac.exe
Дополнительные параметры : -8 -V %s
TOC извлечённого CD
     Трек |   Старт  | Длительность | Начальный сектор | Конечный сектор
    ---------------------------------------------------------------------
       1  |  0:00.00 |    5:07.08   |           0      |      23032
       2  |  5:07.08 |    4:43.27   |       23033      |      44284
       3  |  9:50.35 |    4:39.39   |       44285      |      65248
       4  | 14:29.74 |    4:01.05   |       65249      |      83328
       5  | 18:31.04 |    5:00.15   |       83329      |     105843
       6  | 23:31.19 |    6:09.04   |      105844      |     133522
       7  | 29:40.23 |    6:38.51   |      133523      |     163423
       8  | 36:18.74 |    5:47.10   |      163424      |     189458
       9  | 42:06.09 |    5:50.50   |      189459      |     215758
      10  | 47:56.59 |    6:10.39   |      215759      |     243547
      11  | 54:07.23 |    5:56.04   |      243548      |     270251
      12  | 60:03.27 |    7:56.27   |      270252      |     305978
      13  | 67:59.54 |    4:21.17   |      305979      |     325570
      14  | 72:20.71 |    5:59.05   |      325571      |     352500
Характеристики диапазона извлечения и сообщения об ошибках
Выбранный диапазон
     Имя файла C:\Program Files\Exact Audio Copy\Flac\Leaether Strip - Mental Slavery.wav
     Пиковый уровень 100.0 %
     Качество диапазона 99.9 %
     CRC теста DE885FDD
     CRC копии DE885FDD
     Копирование... OK
Ошибок не произошло
AccurateRip: сводка
Трек  1  нет в базе данных
Трек  2  нет в базе данных
Трек  3  нет в базе данных
Трек  4  нет в базе данных
Трек  5  нет в базе данных
Трек  6  нет в базе данных
Трек  7  нет в базе данных
Трек  8  нет в базе данных
Трек  9  нет в базе данных
Трек 10  нет в базе данных
Трек 11  нет в базе данных
Трек 12  нет в базе данных
Трек 13  нет в базе данных
Трек 14  нет в базе данных
Ни одного трека нет в базе AccurateRip
Конец отчёта
Exact Audio Copy V0.99 prebeta 5 from 4. May 2009
Отчёт EAC об извлечении, выполненном 6. октября 2010, 8:43
Leaether Strip / Mental Disturbance
Дисковод: HL-DT-STDVDRAM GT10N   Adapter: 3  ID: 0
Режим чтения                 : Достоверность
Использование точного потока : Да
Отключение кэша аудио        : Да
Использование указателей C2  : Нет
Коррекция смещения при чтении                     : 102
Способность читать области Lead-in и Lead-out     : Нет
Заполнение пропущенных сэмплов тишиной            : Да
Удаление блоков с тишиной в начале и конце        : Нет
При вычислениях CRC использовались нулевые сэмплы : Да
Интерфейс                                         : Встроенный Win32-интерфейс для Win NT/2000
Выходной формат          : Пользовательский кодировщик
Выбранный битрейт        : 1024 kBit/s
Качество                 : Высокий
Добавление ID3-тэга      : Нет
Утилита сжатия           : C:\Program Files\Exact Audio Copy\Flac\flac.exe
Дополнительные параметры : -8 -V %s
TOC извлечённого CD
     Трек |   Старт  | Длительность | Начальный сектор | Конечный сектор
    ---------------------------------------------------------------------
       1  |  0:00.00 |    4:40.63   |           0      |      21062
       2  |  4:40.63 |    3:56.62   |       21063      |      38824
       3  |  8:37.50 |    5:04.53   |       38825      |      61677
       4  | 13:42.28 |    2:52.53   |       61678      |      74630
       5  | 16:35.06 |    4:22.39   |       74631      |      94319
       6  | 20:57.45 |    3:20.58   |       94320      |     109377
       7  | 24:18.28 |    3:54.30   |      109378      |     126957
       8  | 28:12.58 |    4:34.00   |      126958      |     147507
       9  | 32:46.58 |    4:33.46   |      147508      |     168028
      10  | 37:20.29 |    5:09.23   |      168029      |     191226
      11  | 42:29.52 |    5:34.19   |      191227      |     216295
      12  | 48:03.71 |    3:46.74   |      216296      |     233319
      13  | 51:50.70 |    5:46.19   |      233320      |     259288
      14  | 57:37.14 |    3:57.70   |      259289      |     277133
      15  | 61:35.09 |    5:09.65   |      277134      |     300373
      16  | 66:44.74 |    7:04.17   |      300374      |     332190
      17  | 73:49.16 |    4:47.62   |      332191      |     353777
Характеристики диапазона извлечения и сообщения об ошибках
Выбранный диапазон
     Имя файла C:\Program Files\Exact Audio Copy\Flac\Leaether Strip - Mental Disturbance.wav
     Пиковый уровень 100.0 %
     Качество диапазона 99.9 %
     CRC теста C562572C
     CRC копии C562572C
     Копирование... OK
Ошибок не произошло
AccurateRip: сводка
Трек  1  нет в базе данных
Трек  2  нет в базе данных
Трек  3  нет в базе данных
Трек  4  нет в базе данных
Трек  5  нет в базе данных
Трек  6  нет в базе данных
Трек  7  нет в базе данных
Трек  8  нет в базе данных
Трек  9  нет в базе данных
Трек 10  нет в базе данных
Трек 11  нет в базе данных
Трек 12  нет в базе данных
Трек 13  нет в базе данных
Трек 14  нет в базе данных
Трек 15  нет в базе данных
Трек 16  нет в базе данных
Трек 17  нет в базе данных
Ни одного трека нет в базе AccurateRip
Конец отчёта
Правила, инструкции, FAQ!!!
Торрент  Добавлен [26 июн 2020, 20:12] Скачать торрент Магнет ссылка
Скачать торрент
[ Размер 22.19 КБ / Просмотров 11 ]

Статус
Проверен 
 
Размер  1.88 ГБ
Приватный: Нет (DHT включён)
.torrent скачан  0
 


     Отправить личное сообщение
   
Страница 1 из 1
Показать сообщения за:  Поле сортировки  
Начать новую тему Ответить на тему


Сейчас этот форум просматривают: нет зарегистрированных пользователей и гости: 0


Вы не можете начинать темы
Вы не можете отвечать на сообщения
Вы не можете редактировать свои сообщения
Вы не можете удалять свои сообщения
Вы не можете добавлять вложения

Перейти:  
cron