Начать новую тему Ответить на тему
Статистика раздачи
Размер: 304.05 МБ | Добавлен: 26 июн 2020, 17:07 | Скачали: 0
Сидеров: 0  [0 байт/сек]    Личеров: 0  [0 байт/сек]
Пред. тема | След. тема 

Автор
Сообщение

СообщениеДобавлено: 26 июн 2020, 17:07 

Ответить с цитатой 

Leaether Strip - Carry Me
Жанр: EBM, Electro, Industrial
Год выпуска диска: 2000
Производитель диска: Германия
Аудио кодек: FLAC
Тип рипа: tracks+.cue
Битрейт аудио: lossless
Продолжительность: 38:14.30
Трэклист:
01. Carry Me
02. Carry Me (Phoenix Mix) Remix by Boom
03. Carry Me (Schmidt Mix) Remix by J. Schmidt
04. Carry Me (Phat Mix) Remix by Twitch
05. Carry Me (Testube Mix) Remix by Testube
06. Carry Me (Distorting The Truth) Remix by Synthetic
07. Carry Me (Straight To Hell) Remix - Synthetic
Exact Audio Copy V0.99 prebeta 4 from 23. January 2008
EAC extraction logfile from 18. September 2008, 3:18
Leжther Strip / Carry Me
Used drive : TSSTcorpCD/DVDW SH-W162Z Adapter: 5 ID: 0
Read mode : Secure
Utilize accurate stream : Yes
Defeat audio cache : No
Make use of C2 pointers : Yes
Read offset correction : 6
Overread into Lead-In and Lead-Out : No
Fill up missing offset samples with silence : Yes
Delete leading and trailing silent blocks : No
Null samples used in CRC calculations : Yes
Used interface : Native Win32 interface for Win NT & 2000
Gap handling : Appended to previous track
Used output format : User Defined Encoder
Selected bitrate : 224 kBit/s
Quality : High
Add ID3 tag : No
Command line compressor : C:\Program Files\Exact Audio Copy\Flac\flac.exe
Additional command line options : -V -8 -T "artist=%a" -T "title=%t" -T "album=%g" -T "date=%y" -T "tracknumber=%n" -T "genre=%m" %s
TOC of the extracted CD
Track | Start | Length | Start sector | End sector
---------------------------------------------------------
1 | 0:00.00 | 5:44.06 | 0 | 25805
2 | 5:44.06 | 6:47.29 | 25806 | 56359
3 | 12:31.35 | 6:08.74 | 56360 | 84033
4 | 18:40.34 | 7:33.51 | 84034 | 118059
5 | 26:14.10 | 5:56.69 | 118060 | 144828
6 | 32:11.04 | 6:03.26 | 144829 | 172079
7 | 38:14.30 | 3:16.16 | 172080 | 186795
Track 1
Filename H:\hear encoding\leжther strip\leжther strip - carry me flac\Leжther Strip - Carry Me - 01 - Carry Me.wav
Pre-gap length 0:00:02.00
Peak level 98.0 %
Track quality 100.0 %
Test CRC FC2A4C8D
Copy CRC FC2A4C8D
Track not present in AccurateRip database
Copy OK
Track 2
Filename H:\hear encoding\leжther strip\leжther strip - carry me flac\Leжther Strip - Carry Me - 02 - Carry Me [Phoenix Mix].wav
Pre-gap length 0:00:03.00
Peak level 95.8 %
Track quality 100.0 %
Test CRC 03298FC2
Copy CRC 03298FC2
Track not present in AccurateRip database
Copy OK
Track 3
Filename H:\hear encoding\leжther strip\leжther strip - carry me flac\Leжther Strip - Carry Me - 03 - Carry Me [Schmidt Mix].wav
Pre-gap length 0:00:03.00
Peak level 97.5 %
Track quality 100.0 %
Test CRC 1931DC64
Copy CRC 1931DC64
Track not present in AccurateRip database
Copy OK
Track 4
Filename H:\hear encoding\leжther strip\leжther strip - carry me flac\Leжther Strip - Carry Me - 04 - Carry Me [Phat Mix].wav
Pre-gap length 0:00:03.00
Peak level 98.7 %
Track quality 100.0 %
Test CRC 8C808BEE
Copy CRC 8C808BEE
Track not present in AccurateRip database
Copy OK
Track 5
Filename H:\hear encoding\leжther strip\leжther strip - carry me flac\Leжther Strip - Carry Me - 05 - Carry Me [Teestube Mix].wav
Pre-gap length 0:00:03.00
Peak level 95.9 %
Track quality 100.0 %
Test CRC 40BC41AF
Copy CRC 40BC41AF
Track not present in AccurateRip database
Copy OK
Track 6
Filename H:\hear encoding\leжther strip\leжther strip - carry me flac\Leжther Strip - Carry Me - 06 - Carry Me [Distorting the Truth].wav
Pre-gap length 0:00:03.00
Peak level 96.4 %
Track quality 99.9 %
Test CRC 45C505D9
Copy CRC 45C505D9
Track not present in AccurateRip database
Copy OK
Track 7
Filename H:\hear encoding\leжther strip\leжther strip - carry me flac\Leжther Strip - Carry Me - 07 - Carry Me [Straight to Hell].wav
Pre-gap length 0:00:03.00
Peak level 95.5 %
Track quality 100.0 %
Test CRC 37945D94
Copy CRC 37945D94
Track not present in AccurateRip database
Copy OK
None of the tracks are present in the AccurateRip database
No errors occurred
End of status report
AUDIOCHECKER v2.0 beta (build 457) - by Dester - opdester@freemail.hu
~~~~~~~~~~~~~~~~~~~~~~~~~~~~~~~~~~
-=== DO NOT EDIT THIS FILE! ===-
Path: ...\Carry Me [2000]
01 -=- Leaether Strip - Carry Me - 01 - Carry Me.flac -=- CDDA (100%)
02 -=- Leaether Strip - Carry Me - 02 - Carry Me [Phoenix Mix].flac -=- CDDA (99%)
03 -=- Leaether Strip - Carry Me - 03 - Carry Me [Schmidt Mix].flac -=- CDDA (100%)
04 -=- Leaether Strip - Carry Me - 04 - Carry Me [Phat Mix].flac -=- CDDA (100%)
05 -=- Leaether Strip - Carry Me - 05 - Carry Me [Teestube Mix].flac -=- CDDA (100%)
06 -=- Leaether Strip - Carry Me - 06 - Carry Me [Distorting the Truth].flac -=- CDDA (100%)
07 -=- Leaether Strip - Carry Me - 07 - Carry Me [Straight to Hell].flac -=- CDDA (100%)
Summary 99,86% CDDA
162581908
Доп. информация:
Label: Bloodline
Catalog#: Line CD 008
Format: CD, Maxi-Single
Country: Germany
Released: 06 Mar 2000
Genre: Electronic
Style: Industrial, Electro
Credits: Artwork By [Cover Art] - C.L.
Artwork By [Drawing] - John Reuss
Written-By - Claus Larsen
Notes: Please carry me through the flames
GEMA
Distributor's (Connected) catalogue#: 082445BLO
Barcode: 4 009880 824450
Данный релиз, был успешно подготовлен, благодаря maxmin, за что ему огромное спасибо!
Правила, инструкции, FAQ!!!
Торрент  Добавлен [26 июн 2020, 17:07] Скачать торрент Магнет ссылка
Скачать торрент
[ Размер 7.32 КБ / Просмотров 4 ]

Статус
Проверен 
 
Размер  304.05 МБ
Приватный: Нет (DHT включён)
.torrent скачан  0
 


     Отправить личное сообщение
   
Страница 1 из 1
Показать сообщения за:  Поле сортировки  
Начать новую тему Ответить на тему


Сейчас этот форум просматривают: нет зарегистрированных пользователей и гости: 0


Вы не можете начинать темы
Вы не можете отвечать на сообщения
Вы не можете редактировать свои сообщения
Вы не можете удалять свои сообщения
Вы не можете добавлять вложения

Перейти:  
cron