Начать новую тему Ответить на тему
Статистика раздачи
Размер: 585.83 МБ | Добавлен: 26 июн 2020, 18:55 | Скачали: 0
Сидеров: 0  [0 байт/сек]    Личеров: 0  [0 байт/сек]
Пред. тема | След. тема 

Автор
Сообщение

СообщениеДобавлено: 26 июн 2020, 18:55 

Ответить с цитатой 

Last Influence Of Brain / Inner Wars
Жанр: EBM, Electro, Industrial
Страна-производитель диска: USA
Год издания диска: 2007
Издатель (лейбл): Vendetta Music
Номер по каталогу: VM0001
Страна: Slovakia
Аудио кодек: FLAC (*.flac)
Тип рипа: image+.cue
Битрейт аудио: lossless
Продолжительность: 1:17:51.53
Источник (релизер): CD из личной коллекции.
Наличие сканов в содержимом раздачи: да
Треклист:
01. Return I 3:50
02. Greed 7:34
03. Maybe The Death 6:12
04. Circular Flow Rituals 3:54
05. Return II 1:24
06. Missing Meaning 4:44
07. Inner Wars 4:30
08. Players 5:25
09. Return III 1:13
10. The Ends Beginning 2:34
11. Why Are You Waiting? 6:17
12. Return IV 1:29
13. Too Far Outlying 7:56
14. What This World Is About? 6:06
15. Return V 5:39
16. Return VI 2:01
17. Why You Are Waiting? (Electromorphosis Remix By Brain Leisure) 6:55
Код:
Exact Audio Copy V0.99 prebeta 5 from 4. May 2009
Отчёт EAC об извлечении, выполненном 4. декабря 2010, 14:53
Last Influence Of Brain / Inner Wars
Дисковод: TSSTcorpCDDVDW TS-L632H   Adapter: 0  ID: 0
Режим чтения                 : Достоверность
Использование точного потока : Да
Отключение кэша аудио        : Да
Использование указателей C2  : Нет
Коррекция смещения при чтении                     : 6
Способность читать области Lead-in и Lead-out     : Нет
Заполнение пропущенных сэмплов тишиной            : Да
Удаление блоков с тишиной в начале и конце        : Нет
При вычислениях CRC использовались нулевые сэмплы : Да
Интерфейс                                         : Встроенный Win32-интерфейс для Win NT/2000
Выходной формат          : Пользовательский кодировщик
Выбранный битрейт        : 1024 kBit/s
Качество                 : Высокий
Добавление ID3-тэга      : Нет
Утилита сжатия           : C:\Program Files\Exact Audio Copy\FLAC\FLAC.EXE
Дополнительные параметры : -6 -V -T "ARTIST=%a" -T "TITLE=%t" -T "ALBUM=%g" -T "DATE=%y" -T "TRACKNUMBER=%n" -T "GENRE=%m" -T "COMMENT=%e" %s -o %d
TOC извлечённого CD
     Трек |   Старт  | Длительность | Начальный сектор | Конечный сектор
    ---------------------------------------------------------------------
       1  |  0:00.00 |    3:50.55   |           0      |      17304
       2  |  3:50.55 |    7:34.55   |       17305      |      51409
       3  | 11:25.35 |    6:12.09   |       51410      |      79318
       4  | 17:37.44 |    3:54.43   |       79319      |      96911
       5  | 21:32.12 |    1:24.35   |       96912      |     103246
       6  | 22:56.47 |    4:44.05   |      103247      |     124551
       7  | 27:40.52 |    4:30.40   |      124552      |     144841
       8  | 32:11.17 |    5:25.24   |      144842      |     169240
       9  | 37:36.41 |    1:13.44   |      169241      |     174759
      10  | 38:50.10 |    2:34.54   |      174760      |     186363
      11  | 41:24.64 |    6:17.58   |      186364      |     214696
      12  | 47:42.47 |    1:29.60   |      214697      |     221431
      13  | 49:12.32 |    7:56.03   |      221432      |     257134
      14  | 57:08.35 |    6:06.51   |      257135      |     284635
      15  | 63:15.11 |    5:39.38   |      284636      |     310098
      16  | 68:54.49 |    2:01.64   |      310099      |     319237
      17  | 70:56.38 |    6:55.15   |      319238      |     350377
Характеристики диапазона извлечения и сообщения об ошибках
Выбранный диапазон
     Имя файла C:\Users\Алексей\Desktop\iPOD\Last Influence Of Brain - Inner Wars.wav
     Пиковый уровень 98.8 %
     Качество диапазона 100.0 %
     CRC теста 689FA6B5
     CRC копии 689FA6B5
     Копирование... OK
Ошибок не произошло
AccurateRip: сводка
Трек  1  нет в базе данных
Трек  2  нет в базе данных
Трек  3  нет в базе данных
Трек  4  нет в базе данных
Трек  5  нет в базе данных
Трек  6  нет в базе данных
Трек  7  нет в базе данных
Трек  8  нет в базе данных
Трек  9  нет в базе данных
Трек 10  нет в базе данных
Трек 11  нет в базе данных
Трек 12  нет в базе данных
Трек 13  нет в базе данных
Трек 14  нет в базе данных
Трек 15  нет в базе данных
Трек 16  нет в базе данных
Трек 17  нет в базе данных
Ни одного трека нет в базе AccurateRip
Конец отчёта
Код:
REM GENRE Industrial
REM DATE 2007
REM DISCID 0C123F11
REM COMMENT "ExactAudioCopy v0.99pb5"
PERFORMER "Last Influence Of Brain"
TITLE "Inner Wars"
FILE "Last Influence Of Brain - Inner Wars.flac" WAVE
  TRACK 01 AUDIO
    TITLE "Return 0001"
    PERFORMER "Last Influence Of Brain"
    FLAGS DCP
    INDEX 01 00:00:00
  TRACK 02 AUDIO
    TITLE "Greed"
    PERFORMER "Last Influence Of Brain"
    FLAGS DCP
    INDEX 01 03:50:55
  TRACK 03 AUDIO
    TITLE "In Death"
    PERFORMER "Last Influence Of Brain"
    FLAGS DCP
    INDEX 01 11:25:35
  TRACK 04 AUDIO
    TITLE "Circular Flow Rituals"
    PERFORMER "Last Influence Of Brain"
    FLAGS DCP
    INDEX 01 17:37:44
  TRACK 05 AUDIO
    TITLE "Absent Meaning"
    PERFORMER "Last Influence Of Brain"
    FLAGS DCP
    INDEX 01 21:32:12
  TRACK 06 AUDIO
    TITLE "Inner Wars"
    PERFORMER "Last Influence Of Brain"
    FLAGS DCP
    INDEX 01 22:56:47
  TRACK 07 AUDIO
    TITLE "Players"
    PERFORMER "Last Influence Of Brain"
    FLAGS DCP
    INDEX 01 27:40:52
  TRACK 08 AUDIO
    TITLE "Return 0003"
    PERFORMER "Last Influence Of Brain"
    FLAGS DCP
    INDEX 01 32:11:17
  TRACK 09 AUDIO
    TITLE "The Beginning Of Our End"
    PERFORMER "Last Influence Of Brain"
    FLAGS DCP
    INDEX 01 37:36:41
  TRACK 10 AUDIO
    TITLE "Why Are You Waiting?"
    PERFORMER "Last Influence Of Brain"
    FLAGS DCP
    INDEX 01 38:50:10
  TRACK 11 AUDIO
    TITLE "Return 0004"
    PERFORMER "Last Influence Of Brain"
    FLAGS DCP
    INDEX 01 41:24:64
  TRACK 12 AUDIO
    TITLE "Extrasolar"
    PERFORMER "Last Influence Of Brain"
    FLAGS DCP
    INDEX 01 47:42:47
  TRACK 13 AUDIO
    TITLE "In Our World"
    PERFORMER "Last Influence Of Brain"
    FLAGS DCP
    INDEX 01 49:12:32
  TRACK 14 AUDIO
    TITLE "Return 0005"
    PERFORMER "Last Influence Of Brain"
    FLAGS DCP
    INDEX 01 57:08:35
  TRACK 15 AUDIO
    TITLE "Return 0006"
    PERFORMER "Last Influence Of Brain"
    FLAGS DCP
    INDEX 01 63:15:11
  TRACK 16 AUDIO
    TITLE "Outro"
    PERFORMER "Last Influence Of Brain"
    FLAGS DCP
    INDEX 01 68:54:49
  TRACK 17 AUDIO
    TITLE "Why Are You Waiting? (Electromorphis mix by Brain Leisure)"
    PERFORMER "Last Influence Of Brain"
    FLAGS DCP
    INDEX 01 70:56:38
Код:
[url=https://fastpic.ru/view/14/2011/0104/edb6ff6b3e3a84b1c199a1dde43958fd.jpg.html][img]http://i14.fastpic.ru/thumb/2011/0104/fd/edb6ff6b3e3a84b1c199a1dde43958fd.jpeg[/img][/url][url=https://fastpic.ru/view/14/2011/0104/eca92f8b2e0d41ce56f121d3285ddbc6.jpg.html][img]http://i14.fastpic.ru/thumb/2011/0104/c6/eca92f8b2e0d41ce56f121d3285ddbc6.jpeg[/img][/url][url=https://fastpic.ru/view/14/2011/0104/aa299567e51e7288b8d7c16b4e9741bb.jpg.html][img]http://i14.fastpic.ru/thumb/2011/0104/bb/aa299567e51e7288b8d7c16b4e9741bb.jpeg[/img][/url][url=https://fastpic.ru/view/14/2011/0104/be98a25757f6cb563ff9e04494602d70.jpg.html][img]http://i14.fastpic.ru/thumb/2011/0104/70/be98a25757f6cb563ff9e04494602d70.jpeg[/img][/url]
Код:
[url=http://www.machinistmusic.net/reviews/liobcd2007.html][b][i]Рецензия[/b][/i][/url]
ОГРОМНАЯ БЛАГОДАРНОСТЬ НАШЕМУ КОЛЛЕГЕ KERGARN`у ЗА СКАНЫ!!!
Правила, инструкции, FAQ!!!
Торрент  Добавлен [26 июн 2020, 18:55] Скачать торрент Магнет ссылка
Скачать торрент
[ Размер 12.48 КБ / Просмотров 10 ]

Статус
Проверен 
 
Размер  585.83 МБ
Приватный: Нет (DHT включён)
.torrent скачан  0
 


     Отправить личное сообщение
   
Страница 1 из 1
Показать сообщения за:  Поле сортировки  
Начать новую тему Ответить на тему


Сейчас этот форум просматривают: нет зарегистрированных пользователей и гости: 0


Вы не можете начинать темы
Вы не можете отвечать на сообщения
Вы не можете редактировать свои сообщения
Вы не можете удалять свои сообщения
Вы не можете добавлять вложения

Перейти:  
cron