Начать новую тему Ответить на тему
Статистика раздачи
Размер: 521.13 МБ | Добавлен: 26 июн 2020, 18:55 | Скачали: 0
Сидеров: 0  [0 байт/сек]    Личеров: 0  [0 байт/сек]
Пред. тема | След. тема 

Автор
Сообщение

СообщениеДобавлено: 26 июн 2020, 18:55 

Ответить с цитатой 

Last Influence Of Brain / Illusions And Reality
Жанр: EBM, Electro, Industrial
Страна-производитель диска: Poland
Год издания диска: 2003
Издатель (лейбл): Black Flames Records
Номер по каталогу: BFCD 014
Страна: Slovakia
Аудио кодек: FLAC (*.flac)
Тип рипа: image+.cue
Битрейт аудио: lossless
Продолжительность: 1:08:30.63
Источник (релизер): CD из личной коллекции.
Наличие сканов в содержимом раздачи: да
Треклист:
01. One 3:49
02. Evil Inside 4:33
03. Cruel Beast 4:34
04. N.O.A.C.O. 5:06
05. Illusions And Reality 4:34
06. Conventions And Halve's True 4:24
07. Dozen Of Condemneds 6:36
08. Legacy 6:15
09. Inside 4:26
10. Structure 4:13
11. Escape (Full Version) 8:35
12. Legacy (E.S.R. Remix) 5:38
13. Legacy (K.I.F.O.T.H. Remix) 5:46
Discogs
Код:
Exact Audio Copy V0.99 prebeta 5 from 4. May 2009
Отчёт EAC об извлечении, выполненном 3. апреля 2011, 9:31
Last Influence Of Brain / Illusions And Reality
Дисковод: TSSTcorpCDDVDW TS-L632H   Adapter: 0  ID: 0
Режим чтения                 : Достоверность
Использование точного потока : Да
Отключение кэша аудио        : Да
Использование указателей C2  : Нет
Коррекция смещения при чтении                     : 6
Способность читать области Lead-in и Lead-out     : Нет
Заполнение пропущенных сэмплов тишиной            : Да
Удаление блоков с тишиной в начале и конце        : Нет
При вычислениях CRC использовались нулевые сэмплы : Да
Интерфейс                                         : Встроенный Win32-интерфейс для Win NT/2000
Выходной формат          : Пользовательский кодировщик
Выбранный битрейт        : 1024 kBit/s
Качество                 : Высокий
Добавление ID3-тэга      : Нет
Утилита сжатия           : C:\Program Files\Exact Audio Copy\FLAC\FLAC.EXE
Дополнительные параметры : -6 -V -T "ARTIST=%a" -T "TITLE=%t" -T "ALBUM=%g" -T "DATE=%y" -T "TRACKNUMBER=%n" -T "GENRE=%m" -T "COMMENT=%e" %s -o %d
TOC извлечённого CD
     Трек |   Старт  | Длительность | Начальный сектор | Конечный сектор
    ---------------------------------------------------------------------
       1  |  0:00.00 |    3:49.20   |           0      |      17194
       2  |  3:49.20 |    4:33.33   |       17195      |      37702
       3  |  8:22.53 |    4:34.39   |       37703      |      58291
       4  | 12:57.17 |    5:05.53   |       58292      |      81219
       5  | 18:02.70 |    4:33.53   |       81220      |     101747
       6  | 22:36.48 |    4:24.17   |      101748      |     121564
       7  | 27:00.65 |    6:36.24   |      121565      |     151288
       8  | 33:37.14 |    6:14.64   |      151289      |     179402
       9  | 39:52.03 |    4:26.42   |      179403      |     199394
      10  | 44:18.45 |    4:12.66   |      199395      |     218360
      11  | 48:31.36 |    8:35.05   |      218361      |     256990
      12  | 57:06.41 |    5:37.43   |      256991      |     282308
      13  | 62:44.09 |    5:46.54   |      282309      |     308312
Характеристики диапазона извлечения и сообщения об ошибках
Выбранный диапазон
     Имя файла C:\Users\Алексей\Desktop\iPOD\Last Influence Of Brain - Illusions And Reality.wav
     Пиковый уровень 99.9 %
     Качество диапазона 100.0 %
     CRC теста D7D2285B
     CRC копии D7D2285B
     Копирование... OK
Ошибок не произошло
AccurateRip: сводка
Трек  1  нет в базе данных
Трек  2  нет в базе данных
Трек  3  нет в базе данных
Трек  4  нет в базе данных
Трек  5  нет в базе данных
Трек  6  нет в базе данных
Трек  7  нет в базе данных
Трек  8  нет в базе данных
Трек  9  нет в базе данных
Трек 10  нет в базе данных
Трек 11  нет в базе данных
Трек 12  нет в базе данных
Трек 13  нет в базе данных
Ни одного трека нет в базе AccurateRip
Конец отчёта
Код:
REM GENRE "Electro Industrial"
REM DATE 2003
REM DISCID B3100E0D
REM COMMENT "ExactAudioCopy v0.99pb5"
PERFORMER "Last Influence Of Brain"
TITLE "Illusions And Reality"
FILE "Last Influence Of Brain - Illusions And Reality.flac" WAVE
  TRACK 01 AUDIO
    TITLE "One"
    PERFORMER "Last Influence Of Brain"
    FLAGS DCP
    INDEX 01 00:00:00
  TRACK 02 AUDIO
    TITLE "Evil Inside"
    PERFORMER "Last Influence Of Brain"
    FLAGS DCP
    INDEX 00 03:47:21
    INDEX 01 03:49:20
  TRACK 03 AUDIO
    TITLE "Cruel Beast"
    PERFORMER "Last Influence Of Brain"
    FLAGS DCP
    INDEX 00 08:20:54
    INDEX 01 08:22:53
  TRACK 04 AUDIO
    TITLE "N.O.A.C.O."
    PERFORMER "Last Influence Of Brain"
    FLAGS DCP
    INDEX 00 12:55:18
    INDEX 01 12:57:17
  TRACK 05 AUDIO
    TITLE "Illusions And Reality"
    PERFORMER "Last Influence Of Brain"
    FLAGS DCP
    INDEX 00 18:00:71
    INDEX 01 18:02:70
  TRACK 06 AUDIO
    TITLE "Conventions And Halve's True"
    PERFORMER "Last Influence Of Brain"
    FLAGS DCP
    INDEX 00 22:34:49
    INDEX 01 22:36:48
  TRACK 07 AUDIO
    TITLE "Dozen Of Condemneds"
    PERFORMER "Last Influence Of Brain"
    FLAGS DCP
    INDEX 00 26:58:66
    INDEX 01 27:00:65
  TRACK 08 AUDIO
    TITLE "Legacy "
    PERFORMER "Last Influence Of Brain"
    FLAGS DCP
    INDEX 00 33:35:15
    INDEX 01 33:37:14
  TRACK 09 AUDIO
    TITLE "Inside"
    PERFORMER "Last Influence Of Brain"
    FLAGS DCP
    INDEX 00 39:50:04
    INDEX 01 39:52:03
  TRACK 10 AUDIO
    TITLE "Structure"
    PERFORMER "Last Influence Of Brain"
    FLAGS DCP
    INDEX 00 44:16:46
    INDEX 01 44:18:45
  TRACK 11 AUDIO
    TITLE "Escape (Full Version) "
    PERFORMER "Last Influence Of Brain"
    FLAGS DCP
    INDEX 00 48:29:37
    INDEX 01 48:31:36
  TRACK 12 AUDIO
    TITLE "Legacy (E.S.R. Remix) "
    PERFORMER "Last Influence Of Brain"
    FLAGS DCP
    INDEX 00 57:04:42
    INDEX 01 57:06:41
  TRACK 13 AUDIO
    TITLE "Legacy (K.I.F.O.T.H. Remix)"
    PERFORMER "Last Influence Of Brain"
    FLAGS DCP
    INDEX 00 62:42:10
    INDEX 01 62:44:09
Код:
[url=https://fastpic.ru/view/11/2011/0515/87119fb369814604d872cdabece0fa38.jpg.html][img]http://i11.fastpic.ru/thumb/2011/0515/38/87119fb369814604d872cdabece0fa38.jpeg[/img][/url][url=https://fastpic.ru/view/2/2011/0515/6cdd07169bd4ae4388b03525dd768ccd.jpg.html][img]http://i2.fastpic.ru/thumb/2011/0515/cd/6cdd07169bd4ae4388b03525dd768ccd.jpeg[/img][/url][url=https://fastpic.ru/view/2/2011/0515/702bb6c505601c58a43fc38c389d2ab3.jpg.html][img]http://i2.fastpic.ru/thumb/2011/0515/b3/702bb6c505601c58a43fc38c389d2ab3.jpeg[/img][/url][url=https://fastpic.ru/view/11/2011/0515/36f6dac667a0a3a386ec17eb91bb96e9.jpg.html][img]http://i11.fastpic.ru/thumb/2011/0515/e9/36f6dac667a0a3a386ec17eb91bb96e9.jpeg[/img][/url]
Выражаю благодарность kergarn`у за HQ scans!
Правила, инструкции, FAQ!!!
Торрент  Добавлен [26 июн 2020, 18:55] Скачать торрент Магнет ссылка
Скачать торрент
[ Размер 11.51 КБ / Просмотров 11 ]

Статус
Проверен 
 
Размер  521.13 МБ
Приватный: Нет (DHT включён)
.torrent скачан  0
 


     Отправить личное сообщение
   
Страница 1 из 1
Показать сообщения за:  Поле сортировки  
Начать новую тему Ответить на тему


Сейчас этот форум просматривают: нет зарегистрированных пользователей и гости: 0


Вы не можете начинать темы
Вы не можете отвечать на сообщения
Вы не можете редактировать свои сообщения
Вы не можете удалять свои сообщения
Вы не можете добавлять вложения

Перейти:  
cron