Начать новую тему Ответить на тему
Статистика раздачи
Размер: 988.88 МБ | Добавлен: 26 июн 2020, 17:18 | Скачали: 0
Сидеров: 0  [0 байт/сек]    Личеров: 0  [0 байт/сек]
Пред. тема | След. тема 

Автор
Сообщение

СообщениеДобавлено: 26 июн 2020, 17:18 

Ответить с цитатой 

Infekktion - Toxical Colours
Жанр: EBM / Electro / Industrial | Год выпуска диска: 2003 | Страна: Germany | Аудио кодек: FLAC | Тип рипа: tracks+.cue | Битрейт аудио: lossless
Релиз: runvis (what.cd) | Продолжительность: 2:26:33 | Sites: http://www.infekktion.de
01. Colours (4:14)
02. Try To Believe (4:54)
03. Guilty (5:33)
04. Engel in Schwarz (4:41)
05. The Mask (5:05)
06. Retarded Minds (4:43)
07. Columbarium (2:00)
08. Censored Innocence (5:11)
09. Mission (7:21)
10. Illusion (4:53)
11. Human Nature (6:18)
12. Timed Out (4:48)
13. Don't Look Away (13:56)
Total playing time: 1:13:37
Код:
EAC extraction logfile from 23. May 2010, 12:49 for CD
Infekktion / Infekktion   Toxical Colours
Used drive  : TEAC    CD-W552G   Adapter: 2  ID: 1
Read mode   : Secure with NO C2, accurate stream, disable cache
Read offset correction : 6
Overread into Lead-In and Lead-Out : No
Used output format : Internal WAV Routines
                     44.100 Hz; 16 Bit; Stereo
Other options      :
    Fill up missing offset samples with silence : Yes
    Delete leading and trailing silent blocks : No
    Installed external ASPI interface
Track  1
   Filename G:\TORRENTS\WAV\INFEKKTION-2003-Toxical Colours\CD1\01.wav
   Pre-gap length  0:00:02.00
   Peak level 97.7 %
   Track quality 100.0 %
   Test CRC 71F75C60
   Copy CRC 71F75C60
   Copy OK
Track  2
   Filename G:\TORRENTS\WAV\INFEKKTION-2003-Toxical Colours\CD1\02.wav
   Peak level 97.7 %
   Track quality 100.0 %
   Test CRC 9CC69BDD
   Copy CRC 9CC69BDD
   Copy OK
Track  3
   Filename G:\TORRENTS\WAV\INFEKKTION-2003-Toxical Colours\CD1\03.wav
   Peak level 97.7 %
   Track quality 100.0 %
   Test CRC 14134D3E
   Copy CRC 14134D3E
   Copy OK
Track  4
   Filename G:\TORRENTS\WAV\INFEKKTION-2003-Toxical Colours\CD1\04.wav
   Peak level 97.7 %
   Track quality 100.0 %
   Test CRC 4C1B929C
   Copy CRC 4C1B929C
   Copy OK
Track  5
   Filename G:\TORRENTS\WAV\INFEKKTION-2003-Toxical Colours\CD1\05.wav
   Peak level 89.1 %
   Track quality 100.0 %
   Test CRC 4C44A739
   Copy CRC 4C44A739
   Copy OK
Track  6
   Filename G:\TORRENTS\WAV\INFEKKTION-2003-Toxical Colours\CD1\06.wav
   Peak level 97.7 %
   Track quality 100.0 %
   Test CRC 624FEF22
   Copy CRC 624FEF22
   Copy OK
Track  7
   Filename G:\TORRENTS\WAV\INFEKKTION-2003-Toxical Colours\CD1\07.wav
   Peak level 79.4 %
   Track quality 100.0 %
   Test CRC 21F85CD8
   Copy CRC 21F85CD8
   Copy OK
Track  8
   Filename G:\TORRENTS\WAV\INFEKKTION-2003-Toxical Colours\CD1\08.wav
   Peak level 97.7 %
   Track quality 100.0 %
   Test CRC 1CFC071C
   Copy CRC 1CFC071C
   Copy OK
Track  9
   Filename G:\TORRENTS\WAV\INFEKKTION-2003-Toxical Colours\CD1\09.wav
   Peak level 97.7 %
   Track quality 99.9 %
   Test CRC D590A391
   Copy CRC D590A391
   Copy OK
Track 10
   Filename G:\TORRENTS\WAV\INFEKKTION-2003-Toxical Colours\CD1\10.wav
   Peak level 97.7 %
   Track quality 100.0 %
   Test CRC 784CBC2C
   Copy CRC 784CBC2C
   Copy OK
Track 11
   Filename G:\TORRENTS\WAV\INFEKKTION-2003-Toxical Colours\CD1\11.wav
   Peak level 97.7 %
   Track quality 100.0 %
   Test CRC 2324CBAD
   Copy CRC 2324CBAD
   Copy OK
Track 12
   Filename G:\TORRENTS\WAV\INFEKKTION-2003-Toxical Colours\CD1\12.wav
   Peak level 97.7 %
   Track quality 100.0 %
   Test CRC 77723639
   Copy CRC 77723639
   Copy OK
Track 13
   Filename G:\TORRENTS\WAV\INFEKKTION-2003-Toxical Colours\CD1\13.wav
   Peak level 97.7 %
   Track quality 100.0 %
   Test CRC 4BA13730
   Copy CRC 4BA13730
   Copy OK
No errors occured
End of status report
Код:
REM GENRE EBM
REM DATE 2003
PERFORMER "Infekktion"
TITLE "Toxical Colours (Limited Edition) CD 1"
FILE "01-Colours.wav" WAVE
  TRACK 01 AUDIO
    TITLE "Colours"
    PERFORMER "Infekktion"
    INDEX 01 00:00:00
FILE "02-Try To Believe.wav" WAVE
  TRACK 02 AUDIO
    TITLE "Try To Believe"
    PERFORMER "Infekktion"
    INDEX 01 00:00:00
FILE "03-Guilty.wav" WAVE
  TRACK 03 AUDIO
    TITLE "Guilty"
    PERFORMER "Infekktion"
    INDEX 01 00:00:00
FILE "04-Engel In Schwarz.wav" WAVE
  TRACK 04 AUDIO
    TITLE "Engel In Schwarz"
    PERFORMER "Infekktion"
    INDEX 01 00:00:00
FILE "05-The Mask.wav" WAVE
  TRACK 05 AUDIO
    TITLE "The Mask"
    PERFORMER "Infekktion"
    INDEX 01 00:00:00
FILE "06-Retarded Minds.wav" WAVE
  TRACK 06 AUDIO
    TITLE "Retarded Minds"
    PERFORMER "Infekktion"
    INDEX 01 00:00:00
FILE "07-Columbarium.wav" WAVE
  TRACK 07 AUDIO
    TITLE "Columbarium"
    PERFORMER "Infekktion"
    INDEX 01 00:00:00
FILE "08-Censored Innocence.wav" WAVE
  TRACK 08 AUDIO
    TITLE "Censored Innocence"
    PERFORMER "Infekktion"
    INDEX 01 00:00:00
FILE "09-Mission.wav" WAVE
  TRACK 09 AUDIO
    TITLE "Mission"
    PERFORMER "Infekktion"
    INDEX 01 00:00:00
FILE "10-Illusion.wav" WAVE
  TRACK 10 AUDIO
    TITLE "Illusion"
    PERFORMER "Infekktion"
    INDEX 01 00:00:00
FILE "11-Human Nature.wav" WAVE
  TRACK 11 AUDIO
    TITLE "Human Nature"
    PERFORMER "Infekktion"
    INDEX 01 00:00:00
FILE "12-Timed Out.wav" WAVE
  TRACK 12 AUDIO
    TITLE "Timed Out"
    PERFORMER "Infekktion"
    INDEX 01 00:00:00
FILE "13-Dont Look Away.wav" WAVE
  TRACK 13 AUDIO
    TITLE "Dont Look Away"
    PERFORMER "Infekktion"
    INDEX 01 00:00:00
Код:
[Verification date: 23.05.2010 19:15:30]
[Disc ID: 001ed4d3-0138c89a-bd11410d]
Track [ CRC    ] Status
 01 [59b4b508] (02/02) Accurately ripped as in pressing(s) #1
 02 [d21d8067] (02/02) Accurately ripped as in pressing(s) #1
 03 [97b8cfb3] (02/02) Accurately ripped as in pressing(s) #1
 04 [009fd6bb] (00/00) No matches
 05 [853ae2b5] (02/02) Accurately ripped as in pressing(s) #1
 06 [ee5ee791] (02/02) Accurately ripped as in pressing(s) #1
 07 [2be06106] (02/02) Accurately ripped as in pressing(s) #1
 08 [3cb2808a] (02/02) Accurately ripped as in pressing(s) #1
 09 [6e879e7a] (02/02) Accurately ripped as in pressing(s) #1
 10 [ca3d8dbf] (02/02) Accurately ripped as in pressing(s) #1
 11 [e72514c4] (02/02) Accurately ripped as in pressing(s) #1
 12 [9ea5c6fa] (02/02) Accurately ripped as in pressing(s) #1
 13 [4d9ec8bb] (02/02) Accurately ripped as in pressing(s) #1
Track [ CRC32  ] [W/O NULL] [  LOG   ]
 -- [80450EB9] [C7E5C477]
 01 [71F75C60] [5CED00E5]   CRC32
 02 [9CC69BDD] [6A88E98D]   CRC32
 03 [14134D3E] [6533BF94]   CRC32
 04 [4C1B929C] [B8A8D442]   CRC32
 05 [4C44A739] [E6BA3A51]   CRC32
 06 [624FEF22] [45C07201]   CRC32
 07 [21F85CD8] [DD085BF8]   CRC32
 08 [1CFC071C] [CF2EF402]   CRC32
 09 [D590A391] [376DB04E]   CRC32
 10 [784CBC2C] [4F8C7289]   CRC32
 11 [2324CBAD] [A12F1630]   CRC32
 12 [77723639] [9DD4FAD8]   CRC32
 13 [4BA13730] [EF14AA78]   CRC32
01. Censored Innocence RMX by Grendel (4:56)
02. Try to Believe RMX by Agonoize (4:53)
03. Human Nature RMX by X-Fusion (5:07)
04. Cencored Innocence RMX by Chrisl-Danceordie (4:35)
05. Engel in Schwarz RMX by Sebastian-Schleinitz (8:12)
06. Illusion RMX by Perfidious-Words (4:55)
07. the Mask RMX by Boole (4:01)
08. Engel in Schwarz RMX by ASP (3:43)
09. Illusion RMX by Cyberaxis (4:46)
10. Cencored Innocence RMX by Grenzfall-Mensch (4:41)
11. Timed Out RMX by E-Craft (4:39)
12. Human Nature RMX by Pzycho Bitch (4:02)
13. Illusion RMX by Unknown (4:52)
14. Censored Innocence RMX by Skoyz (4:40)
15. the Mask RMX by Schattenschlag (4:54)
Total playing time: 1:12:55
Код:
EAC extraction logfile from 23. May 2010, 13:18 for CD
Unknown Artist / Unknown Title
Used drive  : TEAC    CD-W552G   Adapter: 2  ID: 1
Read mode   : Secure with NO C2, accurate stream, disable cache
Read offset correction : 6
Overread into Lead-In and Lead-Out : No
Used output format : Internal WAV Routines
                     44.100 Hz; 16 Bit; Stereo
Other options      :
    Fill up missing offset samples with silence : Yes
    Delete leading and trailing silent blocks : No
    Installed external ASPI interface
Track  1
   Filename G:\TORRENTS\WAV\INFEKKTION-2003-Toxical Colours\CD2\01.wav
   Pre-gap length  0:00:02.00
   Peak level 97.7 %
   Track quality 100.0 %
   Test CRC 75B225BC
   Copy CRC 75B225BC
   Copy OK
Track  2
   Filename G:\TORRENTS\WAV\INFEKKTION-2003-Toxical Colours\CD2\02.wav
   Peak level 97.7 %
   Track quality 100.0 %
   Test CRC EBF34ACF
   Copy CRC EBF34ACF
   Copy OK
Track  3
   Filename G:\TORRENTS\WAV\INFEKKTION-2003-Toxical Colours\CD2\03.wav
   Peak level 97.7 %
   Track quality 100.0 %
   Test CRC 367521D8
   Copy CRC 367521D8
   Copy OK
Track  4
   Filename G:\TORRENTS\WAV\INFEKKTION-2003-Toxical Colours\CD2\04.wav
   Peak level 97.7 %
   Track quality 100.0 %
   Test CRC 8527642A
   Copy CRC 8527642A
   Copy OK
Track  5
   Filename G:\TORRENTS\WAV\INFEKKTION-2003-Toxical Colours\CD2\05.wav
   Peak level 97.7 %
   Track quality 100.0 %
   Test CRC 5ADA18CC
   Copy CRC 5ADA18CC
   Copy OK
Track  6
   Filename G:\TORRENTS\WAV\INFEKKTION-2003-Toxical Colours\CD2\06.wav
   Peak level 89.1 %
   Track quality 100.0 %
   Test CRC F1EAB133
   Copy CRC F1EAB133
   Copy OK
Track  7
   Filename G:\TORRENTS\WAV\INFEKKTION-2003-Toxical Colours\CD2\07.wav
   Peak level 97.7 %
   Track quality 100.0 %
   Test CRC 47353F5C
   Copy CRC 47353F5C
   Copy OK
Track  8
   Filename G:\TORRENTS\WAV\INFEKKTION-2003-Toxical Colours\CD2\08.wav
   Peak level 100.0 %
   Track quality 100.0 %
   Test CRC 5FE3EBE9
   Copy CRC 5FE3EBE9
   Copy OK
Track  9
   Filename G:\TORRENTS\WAV\INFEKKTION-2003-Toxical Colours\CD2\09.wav
   Peak level 97.7 %
   Track quality 100.0 %
   Test CRC 40689044
   Copy CRC 40689044
   Copy OK
Track 10
   Filename G:\TORRENTS\WAV\INFEKKTION-2003-Toxical Colours\CD2\10.wav
   Peak level 97.7 %
   Track quality 100.0 %
   Test CRC 2E9120C0
   Copy CRC 2E9120C0
   Copy OK
Track 11
   Filename G:\TORRENTS\WAV\INFEKKTION-2003-Toxical Colours\CD2\11.wav
   Peak level 97.7 %
   Track quality 100.0 %
   Test CRC C6E3DA2B
   Copy CRC C6E3DA2B
   Copy OK
Track 12
   Filename G:\TORRENTS\WAV\INFEKKTION-2003-Toxical Colours\CD2\12.wav
   Peak level 97.7 %
   Track quality 99.9 %
   Test CRC 8E3D9755
   Copy CRC 8E3D9755
   Copy OK
Track 13
   Filename G:\TORRENTS\WAV\INFEKKTION-2003-Toxical Colours\CD2\13.wav
   Peak level 97.7 %
   Track quality 99.9 %
   Test CRC 6643AFEA
   Copy CRC 6643AFEA
   Copy OK
Track 14
   Filename G:\TORRENTS\WAV\INFEKKTION-2003-Toxical Colours\CD2\14.wav
   Peak level 97.7 %
   Track quality 100.0 %
   Test CRC FF480AB4
   Copy CRC FF480AB4
   Copy OK
Track 15
   Filename G:\TORRENTS\WAV\INFEKKTION-2003-Toxical Colours\CD2\15.wav
   Peak level 97.7 %
   Track quality 99.9 %
   Test CRC B18FB4F7
   Copy CRC B18FB4F7
   Copy OK
No errors occured
End of status report
Код:
REM GENRE EBM
REM DATE 2003
PERFORMER "Infekktion"
TITLE "Toxical Colours (Limited Edition) CD 2"
FILE "01-Censored Innocence (rmx By Grendel).wav" WAVE
  TRACK 01 AUDIO
    TITLE "Censored Innocence (rmx By Grendel)"
    PERFORMER "Infekktion"
    INDEX 01 00:00:00
FILE "02-Try To Believe (rmx By Agonoize).wav" WAVE
  TRACK 02 AUDIO
    TITLE "Try To Believe (rmx By Agonoize)"
    PERFORMER "Infekktion"
    INDEX 01 00:00:00
FILE "03-Human Nature (rmx By X-Fusion).wav" WAVE
  TRACK 03 AUDIO
    TITLE "Human Nature (rmx By X-Fusion)"
    PERFORMER "Infekktion"
    INDEX 01 00:00:00
FILE "04-Censored Innocence (rmx By Chris L (Dance Or Die)).wav" WAVE
  TRACK 04 AUDIO
    TITLE "Censored Innocence (rmx By Chris L (Dance Or Die))"
    PERFORMER "Infekktion"
    INDEX 01 00:00:00
FILE "05-Engel In Schwarz (rmx By Sebastian Schleintz).wav" WAVE
  TRACK 05 AUDIO
    TITLE "Engel In Schwarz (rmx By Sebastian Schleintz)"
    PERFORMER "Infekktion"
    INDEX 01 00:00:00
FILE "06-Illusion (rmx By Perfidious Words).wav" WAVE
  TRACK 06 AUDIO
    TITLE "Illusion (rmx By Perfidious Words)"
    PERFORMER "Infekktion"
    INDEX 01 00:00:00
FILE "07-The Mask (rmx By Boole).wav" WAVE
  TRACK 07 AUDIO
    TITLE "The Mask (rmx By Boole)"
    PERFORMER "Infekktion"
    INDEX 01 00:00:00
FILE "08-Engel In Schwarz (rmx By Asp).wav" WAVE
  TRACK 08 AUDIO
    TITLE "Engel In Schwarz (rmx By Asp)"
    PERFORMER "Infekktion"
    INDEX 01 00:00:00
FILE "09-Illusion (rmx By Cyber Axis).wav" WAVE
  TRACK 09 AUDIO
    TITLE "Illusion (rmx By Cyber Axis)"
    PERFORMER "Infekktion"
    INDEX 01 00:00:00
FILE "10-Censored Innocence (rmx By Grenzfall-Mensch).wav" WAVE
  TRACK 10 AUDIO
    TITLE "Censored Innocence (rmx By Grenzfall-Mensch)"
    PERFORMER "Infekktion"
    INDEX 01 00:00:00
FILE "11-Timed Out (rmx By E-Craft).wav" WAVE
  TRACK 11 AUDIO
    TITLE "Timed Out (rmx By E-Craft)"
    PERFORMER "Infekktion"
    INDEX 01 00:00:00
FILE "12-Human Nature (rmx Pzycho Bitch).wav" WAVE
  TRACK 12 AUDIO
    TITLE "Human Nature (rmx Pzycho Bitch)"
    PERFORMER "Infekktion"
    INDEX 01 00:00:00
FILE "13-Illusion (rmx By Unknown).wav" WAVE
  TRACK 13 AUDIO
    TITLE "Illusion (rmx By Unknown)"
    PERFORMER "Infekktion"
    INDEX 01 00:00:00
FILE "14-Censored Innocence (rmx By Skoyz).wav" WAVE
  TRACK 14 AUDIO
    TITLE "Censored Innocence (rmx By Skoyz)"
    PERFORMER "Infekktion"
    INDEX 01 00:00:00
FILE "15-The Mask (rmx By Schattenschlag).wav" WAVE
  TRACK 15 AUDIO
    TITLE "The Mask (rmx By Schattenschlag)"
    PERFORMER "Infekktion"
    INDEX 01 00:00:00
Код:
[Verification date: 23.05.2010 19:41:00]
[Disc ID: 00291d08-01ce77a1-e111170f]
Track [ CRC    ] Status
 01 [423e800a] (02/02) Accurately ripped as in pressing(s) #1
 02 [db9a4053] (02/02) Accurately ripped as in pressing(s) #1
 03 [f4edd441] (02/02) Accurately ripped as in pressing(s) #1
 04 [461270bd] (02/02) Accurately ripped as in pressing(s) #1
 05 [b8d52054] (02/02) Accurately ripped as in pressing(s) #1
 06 [0e9df91e] (00/00) No matches
 07 [fe539490] (02/02) Accurately ripped as in pressing(s) #1
 08 [3bd07cd1] (02/02) Accurately ripped as in pressing(s) #1
 09 [d64c2d72] (02/02) Accurately ripped as in pressing(s) #1
 10 [5a7a41a7] (00/00) No matches
 11 [6fd2f982] (02/02) Accurately ripped as in pressing(s) #1
 12 [0144afc6] (00/00) No matches
 13 [41fcaacc] (02/02) Accurately ripped as in pressing(s) #1
 14 [8e86e108] (02/02) Accurately ripped as in pressing(s) #1
 15 [6edb16c6] (02/02) Accurately ripped as in pressing(s) #1
Track [ CRC32  ] [W/O NULL] [  LOG   ]
 -- [3BD3931C] [335F4DDC]
 01 [75B225BC] [3D62A45D]   CRC32
 02 [EBF34ACF] [75052573]   CRC32
 03 [367521D8] [678A797B]   CRC32
 04 [8527642A] [9D6680F1]   CRC32
 05 [5ADA18CC] [E07A7AD3]   CRC32
 06 [F1EAB133] [BA673B95]   CRC32
 07 [47353F5C] [67079718]   CRC32
 08 [5FE3EBE9] [391C32A3]   CRC32
 09 [40689044] [D2BAFCDB]   CRC32
 10 [2E9120C0] [4FD19925]   CRC32
 11 [C6E3DA2B] [33C067AB]   CRC32
 12 [8E3D9755] [D28FA0BE]   CRC32
 13 [6643AFEA] [E59A30EE]   CRC32
 14 [FF480AB4] [75A9FC3E]   CRC32
 15 [B18FB4F7] [E685C4FC]   CRC32
Правила, инструкции, FAQ!!!
Торрент  Добавлен [26 июн 2020, 17:18] Скачать торрент Магнет ссылка
Скачать торрент
[ Размер 22.35 КБ / Просмотров 9 ]

Статус
Проверен 
 
Размер  988.88 МБ
Приватный: Нет (DHT включён)
.torrent скачан  0
 


     Отправить личное сообщение
   
Страница 1 из 1
Показать сообщения за:  Поле сортировки  
Начать новую тему Ответить на тему


Сейчас этот форум просматривают: нет зарегистрированных пользователей и гости: 0


Вы не можете начинать темы
Вы не можете отвечать на сообщения
Вы не можете редактировать свои сообщения
Вы не можете удалять свои сообщения
Вы не можете добавлять вложения

Перейти:  
cron