Начать новую тему Ответить на тему
Статистика раздачи
Размер: 314.66 МБ | Добавлен: 26 июн 2020, 17:34 | Скачали: 0
Сидеров: 0  [0 байт/сек]    Личеров: 0  [0 байт/сек]
Пред. тема | След. тема 

Автор
Сообщение

СообщениеДобавлено: 26 июн 2020, 17:34 

Ответить с цитатой 


Individual Totem

Electrostatic





• Жанр: EBM | Electro | Industrial
• Носитель: WEB
• Год издания: 2018
• Издатель: Artoffact Records
• Страна: Germany
• Аудиокодек: FLAC (*.flac)
• Тип рипа: tracks
• Продолжительность: 00:44:20
• Источник (спасибо): NT (DMMANIAC)
• WEB релиз: bandcamp
• Наличие сканов: front

01 - Perfect (00:05:15)
02 - Pure (00:04:15)
03 - Warriors of the Sun (00:03:13)
04 - Lullaby in a Snowstorm (00:04:58)
05 - Fire (00:03:32)
06 - Interluder 1 (00:02:38)
07 - Dreaming of Angels (00:04:01)
08 - Last Chance (00:03:17)
09 - Enlighten Me (00:03:43)
10 - Interluder 2 (00:01:09)
11 - Beat (00:03:35)
12 - How We Feel (00:04:41)



Код:
foobar2000 1.2.5 / Замер динамического диапазона (DR) 1.1.1
Дата отчёта:  2018-10-03 17:28:37
--------------------------------------------------------------------------------
Анализ:   Individual Totem / Electrostatic
--------------------------------------------------------------------------------
DR         Пики         RMS           Продолжительность трека
--------------------------------------------------------------------------------
DR8       -0.10 дБ    -9.63 дБ      5:15 01-Perfect
DR8       -0.10 дБ   -10.11 дБ      4:15 02-Pure
DR8       -0.10 дБ    -9.27 дБ      3:13 03-Warriors of the Sun
DR8       -0.10 дБ   -10.73 дБ      4:58 04-Lullaby in a Snowstorm
DR8       -0.10 дБ   -11.08 дБ      3:33 05-Fire
DR9       -0.10 дБ   -10.34 дБ      2:38 06-Interluder 1
DR8       -0.10 дБ   -10.87 дБ      4:01 07-Dreaming of Angels
DR6       -0.10 дБ    -8.32 дБ      3:17 08-Last Chance
DR8       -0.10 дБ    -9.44 дБ      3:44 09-Enlighten Me
DR9       -0.10 дБ   -11.13 дБ      1:09 10-Interluder 2
DR8       -0.10 дБ   -10.08 дБ      3:35 11-Beat
DR8       -0.10 дБ   -10.82 дБ      4:41 12-How We Feel
--------------------------------------------------------------------------------
Количество треков: 12
Реальные значения DR: DR8
Частота:  44100 Гц
Каналов:  2
Разрядность:   16
Битрейт:  987 кбит/с
Кодек:   FLAC
================================================================================

Код:
-----------------------
DON'T MODIFY THIS FILE
-----------------------
PERFORMER: auCDtect Task Manager, ver. 1.6.0 RC1 build 1.6.0.1
Copyright (c) 2008-2010 y-soft. All rights reserved
[url=http://y-soft.org]http://y-soft.org[/url]
ANALYZER: auCDtect: CD records authenticity detector, version 0.8.2
Copyright (c) 2004 Oleg Berngardt. All rights reserved.
Copyright (c) 2004 Alexander Djourik. All rights reserved.
FILE: 12 - How We Feel.flac
  Size: 34903858 Hash: EF0DEB6F2159FC855B69B29DD056B04B Accuracy: -m0
  Conclusion: CDDA 99%
  Signature: FB54930449A0520A7BD6F15CA08045FF550BD4AF
FILE: 11 - Beat.flac
  Size: 27111780 Hash: C3CB3DD3437737C7F83B6DE0DAC7F453 Accuracy: -m0
  Conclusion: CDDA 100%
  Signature: D4849F942565EA8ECBDB5B93CE26F07064DE8031
FILE: 10 - Interluder 2.flac
  Size: 8295445 Hash: 67D632BE1CB4A68F259E1CCF6A0F1747 Accuracy: -m0
  Conclusion: CDDA 100%
  Signature: DCD89EFA490DA43EE26BE1969B41617091C9E86E
FILE: 09 - Enlighten Me.flac
  Size: 28953451 Hash: 51BE0667EDF73C11CE15364025298186 Accuracy: -m0
  Conclusion: CDDA 100%
  Signature: BC6F266EC6B1EECA67A899843456FF842BC0BDB4
FILE: 08 - Last Chance.flac
  Size: 25599803 Hash: D5AC333FEEE5E709FB49BB106C5A051B Accuracy: -m0
  Conclusion: CDDA 100%
  Signature: 985C6C698F0F4BD729928E66E6BCB74D4A83607F
FILE: 07 - Dreaming of Angels.flac
  Size: 28972123 Hash: 7F5A888DA375E7ECDF04235187CB0025 Accuracy: -m0
  Conclusion: CDDA 100%
  Signature: 248FDADDBEBAA2A25AEE359FBED11624BB316494
FILE: 06 - Interluder 1.flac
  Size: 18971534 Hash: 8DD52BE5A3E913E2A95DAE5E839B30F8 Accuracy: -m0
  Conclusion: CDDA 100%
  Signature: 395890411377F0323CDF2896A909E2DDF330C949
FILE: 05 - Fire.flac
  Size: 25748323 Hash: 69D7BD8C185DD9D0181AE5923DBBC8F7 Accuracy: -m0
  Conclusion: CDDA 100%
  Signature: 33E09FA23A85EC0B314747720219869EF8F3A54F
FILE: 04 - Lullaby in a Snowstorm.flac
  Size: 34256284 Hash: F229501D2285549DF976CB2A81D1241C Accuracy: -m0
  Conclusion: CDDA 100%
  Signature: 06E2CF975DD31B1EC44AB2240159883CAB60F141
FILE: 03 - Warriors of the Sun.flac
  Size: 25103925 Hash: 90FB62647838A56A0DF47E6704E24E42 Accuracy: -m0
  Conclusion: CDDA 100%
  Signature: FE0B30DA9BAB45B4408E33B9001FE2955179DEA0
FILE: 02 - Pure.flac
  Size: 26076959 Hash: 2E2805D8AADDDE6271B8C2B73EB78022 Accuracy: -m0
  Conclusion: CDDA 100%
  Signature: 3164EFB75F26D2526AF578A39952D64F55860C36
FILE: 01 - Perfect.flac
  Size: 39664927 Hash: 1F084438B966C30A2FCE35E74F63CAAA Accuracy: -m0
  Conclusion: CDDA 100%
  Signature: 69EE0C1DDAA0B6697204DB88AC2ED77044343CAC


Правила, инструкции, FAQ!!!
Торрент  Добавлен [26 июн 2020, 17:34] Скачать торрент Магнет ссылка
Скачать торрент
[ Размер 13.45 КБ / Просмотров 8 ]

Статус
Проверен 
 
Размер  314.66 МБ
Приватный: Нет (DHT включён)
.torrent скачан  0
 


     Отправить личное сообщение
   
Страница 1 из 1
Показать сообщения за:  Поле сортировки  
Начать новую тему Ответить на тему


Сейчас этот форум просматривают: нет зарегистрированных пользователей и гости: 0


Вы не можете начинать темы
Вы не можете отвечать на сообщения
Вы не можете редактировать свои сообщения
Вы не можете удалять свои сообщения
Вы не можете добавлять вложения

Перейти:  
cron