Начать новую тему Ответить на тему
Статистика раздачи
Размер: 556.46 МБ | Добавлен: 26 июн 2020, 17:26 | Скачали: 0
Сидеров: 0  [0 байт/сек]    Личеров: 0  [0 байт/сек]
Пред. тема | След. тема 

Автор
Сообщение

СообщениеДобавлено: 26 июн 2020, 17:26 

Ответить с цитатой 

Impact Pulse / Remix Module's (ЕР)
Жанр: EBM, Electro, Industrial
Страна-производитель диска: Hungary
Год издания диска: 2010
Издатель (лейбл): Advoxya
Номер по каталогу: ad-hun-34-ep
Страна: Hungary
Аудио кодек: FLAC (*.flac)
Тип рипа: image+.cue
Битрейт аудио: lossless
Продолжительность: 01:17:19
Источник (релизер): Личный СД
Наличие сканов в содержимом раздачи: да (600dpi)
Треклист:
01. Blade
02. The End
03. Stronger (New Module Mix)
04. Madhunt (Headfield Module Mix)
05. Hate (Diffusion Remix)
06. Til We Die (Blank Remix)
07. Stronger (Sunao Inami Remix)
08. I Want You (Club Mix By Monika Mhz)
09. Til We Die (Massiv In Mensch Remix)
10. Hate (Deadjump Remix)
11. I Want You (Pro-Life Mix By Schyzzo.Com)
12. I Want You (First Aid 4 Souls Remix)
13. Stronger (Disharmony Remix)
14. Hate (Niteshift Remix)
15. I Want You (Livingtotem Edit)
16. Til We Die (Nexus VI Remix)
Код:
Exact Audio Copy V0.99 prebeta 5 from 4. May 2009
Отчёт EAC об извлечении, выполненном 17. января 2011, 14:16
Remix Module's (EP) / Impact Pulse
Дисковод: Optiarc DVD RW AD-7201S   Adapter: 2  ID: 1
Режим чтения                 : Достоверность
Использование точного потока : Да
Отключение кэша аудио        : Да
Использование указателей C2  : Нет
Коррекция смещения при чтении                     : 48
Способность читать области Lead-in и Lead-out     : Нет
Заполнение пропущенных сэмплов тишиной            : Да
Удаление блоков с тишиной в начале и конце        : Нет
При вычислениях CRC использовались нулевые сэмплы : Да
Интерфейс                                         : Встроенный Win32-интерфейс для Win NT/2000
Выходной формат : Внутренние WAV-операции
Формат сэмплов  : 44.100 Гц; 16 бит; стерео
TOC извлечённого CD
     Трек |   Старт  | Длительность | Начальный сектор | Конечный сектор
    ---------------------------------------------------------------------
       1  |  0:00.00 |    4:52.35   |           0      |      21934
       2  |  4:52.35 |    4:27.74   |       21935      |      42033
       3  |  9:20.34 |    5:26.50   |       42034      |      66533
       4  | 14:47.09 |    5:51.03   |       66534      |      92861
       5  | 20:38.12 |    5:09.62   |       92862      |     116098
       6  | 25:47.74 |    4:16.60   |      116099      |     135358
       7  | 30:04.59 |    4:46.15   |      135359      |     156823
       8  | 34:50.74 |    4:34.48   |      156824      |     177421
       9  | 39:25.47 |    3:49.51   |      177422      |     194647
      10  | 43:15.23 |    6:14.71   |      194648      |     222768
      11  | 49:30.19 |    4:45.74   |      222769      |     244217
      12  | 54:16.18 |    4:06.51   |      244218      |     262718
      13  | 58:22.69 |    4:00.74   |      262719      |     280792
      14  | 62:23.68 |    4:44.32   |      280793      |     302124
      15  | 67:08.25 |    6:13.71   |      302125      |     330170
      16  | 73:22.21 |    3:56.12   |      330171      |     347882
Характеристики диапазона извлечения и сообщения об ошибках
Выбранный диапазон
     Имя файла D:\Раздачи\Remix Module's (EP) - Impact Pulse.wav
     Пиковый уровень 100.0 %
     Качество диапазона 100.0 %
     CRC теста 945CFDF3
     CRC копии 945CFDF3
     Копирование... OK
Ошибок не произошло
AccurateRip: сводка
Трек  1  нет в базе данных
Трек  2  нет в базе данных
Трек  3  нет в базе данных
Трек  4  нет в базе данных
Трек  5  нет в базе данных
Трек  6  нет в базе данных
Трек  7  нет в базе данных
Трек  8  нет в базе данных
Трек  9  нет в базе данных
Трек 10  нет в базе данных
Трек 11  нет в базе данных
Трек 12  нет в базе данных
Трек 13  нет в базе данных
Трек 14  нет в базе данных
Трек 15  нет в базе данных
Трек 16  нет в базе данных
Ни одного трека нет в базе AccurateRip
Конец отчёта
Правила, инструкции, FAQ!!!
Торрент  Добавлен [26 июн 2020, 17:26] Скачать торрент Магнет ссылка
Скачать торрент
[ Размер 11.78 КБ / Просмотров 11 ]

Статус
Проверен 
 
Размер  556.46 МБ
Приватный: Нет (DHT включён)
.torrent скачан  0
 


     Отправить личное сообщение
   
Страница 1 из 1
Показать сообщения за:  Поле сортировки  
Начать новую тему Ответить на тему


Сейчас этот форум просматривают: нет зарегистрированных пользователей и гости: 1


Вы не можете начинать темы
Вы не можете отвечать на сообщения
Вы не можете редактировать свои сообщения
Вы не можете удалять свои сообщения
Вы не можете добавлять вложения

Перейти:  
cron