Начать новую тему Ответить на тему
Статистика раздачи
Размер: 509.02 МБ | Добавлен: 26 июн 2020, 19:40 | Скачали: 0
Сидеров: 0  [0 байт/сек]    Личеров: 0  [0 байт/сек]
Пред. тема | След. тема 

Автор
Сообщение

СообщениеДобавлено: 26 июн 2020, 19:40 

Ответить с цитатой 

Human Decay / Perfect Visions
Жанр: EBM, Electro, Industrial
Страна-производитель диска: Germany
Год издания: 2003
Издатель (лейбл): EFA / Accession Records
Номер по каталогу: EFA 23456-2
Страна: Germany
Аудиокодек: FLAC (*.flac)
Тип рипа: image+.cue
Битрейт аудио: lossless
Продолжительность: 1:07:58.08
Источник (релизер): CD из личной коллекции.
Наличие сканов в содержимом раздачи: да
Треклист:
01. Intro 2:03
02. Drive-Live 6:50
03. Sale 5:16
04. Stony Angel 3:35
05. Furious Desperation 6:05
06. Guise Of Love 5:15
07. Body Of Knowledge 4:09
08. Underlined Necessity 5:11
09. Entrance 3:21
10. In Search 4:02
11. Sale (Edit) 4:02
12. Tour D'Horizon 6:12
13. Consciedence (Wave In Head-rmx) 3:39
14. State (Medronho-Mix By MC1R) 4:38
15. Pray Man 3:32
Discogs
Код:
Exact Audio Copy V1.0 beta 3 from 29. August 2011
Отчёт EAC об извлечении, выполненном 1. июня 2012, 9:57
Human Decay / Perfect Visions
Дисковод: hp      DVD-RAM UJ8B1   Adapter: 0  ID: 2
Режим чтения                 : Достоверность
Использование точного потока : Да
Отключение кэша аудио        : Да
Использование указателей C2  : Нет
Коррекция смещения при чтении                     : 6
Способность читать области Lead-in и Lead-out     : Нет
Заполнение пропущенных сэмплов тишиной            : Да
Удаление блоков с тишиной в начале и конце        : Нет
При вычислениях CRC использовались нулевые сэмплы : Да
Интерфейс                                         : Встроенный Win32-интерфейс для Win NT/2000
Выходной формат          : Пользовательский кодировщик
Выбранный битрейт        : 1024 kBit/s
Качество                 : Высокий
Добавление ID3-тега      : Нет
Утилита сжатия           : C:\Program Files (x86)\Exact Audio Copy\FLAC\FLAC.EXE
Дополнительные параметры : -V -8 -T "Date=%year%" -T "Genre=%genre%" %source%
TOC извлечённого CD
     Трек |   Старт  | Длительность | Начальный сектор | Конечный сектор
    ---------------------------------------------------------------------
       1  |  0:00.00 |    2:03.33   |           0      |       9257
       2  |  2:03.33 |    6:50.58   |        9258      |      40065
       3  |  8:54.16 |    5:16.47   |       40066      |      63812
       4  | 14:10.63 |    3:35.13   |       63813      |      79950
       5  | 17:46.01 |    6:05.16   |       79951      |     107341
       6  | 23:51.17 |    5:15.41   |      107342      |     131007
       7  | 29:06.58 |    4:09.10   |      131008      |     149692
       8  | 33:15.68 |    5:11.56   |      149693      |     173073
       9  | 38:27.49 |    3:21.03   |      173074      |     188151
      10  | 41:48.52 |    4:02.29   |      188152      |     206330
      11  | 45:51.06 |    4:02.35   |      206331      |     224515
      12  | 49:53.41 |    6:12.70   |      224516      |     252485
      13  | 56:06.36 |    3:39.59   |      252486      |     268969
      14  | 59:46.20 |    4:38.71   |      268970      |     289890
      15  | 64:25.16 |    3:32.67   |      289891      |     305857
Характеристики диапазона извлечения и сообщения об ошибках
Выбранный диапазон
     Имя файла C:\Users\HP\Music\Human Decay - Perfect Visions.wav
     Пиковый уровень 99.4 %
     Скорость извлечения 5.0 X
     Качество диапазона 100.0 %
     CRC теста 5A2A7660
     CRC копии 5A2A7660
     Копирование... OK
Ошибок не произошло
AccurateRip: сводка
Трек  1  : извлечено точно (доверие 2)  [05FCAA96]  (AR v1)
Трек  2  : извлечено точно (доверие 2)  [4869C076]  (AR v1)
Трек  3  : извлечено точно (доверие 2)  [CBD9EFC2]  (AR v1)
Трек  4  : извлечено точно (доверие 2)  [9D91520B]  (AR v1)
Трек  5  : извлечено точно (доверие 2)  [FCB2D0D4]  (AR v1)
Трек  6  : извлечено точно (доверие 2)  [476F7A1F]  (AR v1)
Трек  7  : извлечено точно (доверие 2)  [9B63185A]  (AR v1)
Трек  8  : извлечено точно (доверие 2)  [B620684A]  (AR v1)
Трек  9  : извлечено точно (доверие 2)  [ADE4A90C]  (AR v1)
Трек 10  : извлечено точно (доверие 2)  [597B0E0F]  (AR v1)
Трек 11  : извлечено точно (доверие 2)  [7224DC0C]  (AR v1)
Трек 12  : извлечено точно (доверие 2)  [D2891A47]  (AR v1)
Трек 13  : извлечено точно (доверие 2)  [7C01C096]  (AR v1)
Трек 14  : извлечено точно (доверие 2)  [48DBF5DB]  (AR v1)
Трек 15  : извлечено точно (доверие 2)  [EA05AA5F]  (AR v1)
Все треки извлечены точно
Конец отчёта
==== Контрольная сумма отчёта C7FF322BF1ED795B60DDD9A00CD3AF0437AE248A50B99851A7CFFACAC1BF09A4 ====
Код:
REM GENRE Electro
REM DATE 2003
REM DISCID F30FEE0F
REM COMMENT "ExactAudioCopy v1.0b3"
PERFORMER "Human Decay"
TITLE "Perfect Visions"
FILE "Human Decay - Perfect Visions.flac" WAVE
  TRACK 01 AUDIO
    TITLE "Intro"
    PERFORMER "Human Decay"
    INDEX 01 00:00:00
  TRACK 02 AUDIO
    TITLE "Drive-Live"
    PERFORMER "Human Decay"
    INDEX 01 02:03:33
  TRACK 03 AUDIO
    TITLE "Sale"
    PERFORMER "Human Decay"
    INDEX 00 08:53:03
    INDEX 01 08:54:16
  TRACK 04 AUDIO
    TITLE "Stony Angel"
    PERFORMER "Human Decay"
    INDEX 00 14:09:26
    INDEX 01 14:10:63
  TRACK 05 AUDIO
    TITLE "Furious Desperation"
    PERFORMER "Human Decay"
    INDEX 00 17:44:04
    INDEX 01 17:46:01
  TRACK 06 AUDIO
    TITLE "Guise Of Love"
    PERFORMER "Human Decay"
    INDEX 00 23:48:38
    INDEX 01 23:51:17
  TRACK 07 AUDIO
    TITLE "Body Of Knowledge"
    PERFORMER "Human Decay"
    INDEX 00 29:03:73
    INDEX 01 29:06:58
  TRACK 08 AUDIO
    TITLE "Underlined Necessity"
    PERFORMER "Human Decay"
    INDEX 00 33:14:17
    INDEX 01 33:15:68
  TRACK 09 AUDIO
    TITLE "Entrance"
    PERFORMER "Human Decay"
    INDEX 00 38:25:33
    INDEX 01 38:27:49
  TRACK 10 AUDIO
    TITLE "In Search"
    PERFORMER "Human Decay"
    INDEX 00 41:46:53
    INDEX 01 41:48:52
  TRACK 11 AUDIO
    TITLE "Sale (Edit)"
    PERFORMER "Human Decay"
    INDEX 00 45:48:44
    INDEX 01 45:51:06
  TRACK 12 AUDIO
    TITLE "Tour D'Horizon"
    PERFORMER "Human Decay"
    INDEX 00 49:51:38
    INDEX 01 49:53:41
  TRACK 13 AUDIO
    TITLE "Conscience (Wave In Head RMX)"
    PERFORMER "Human Decay"
    INDEX 00 56:05:16
    INDEX 01 56:06:36
  TRACK 14 AUDIO
    TITLE "State (Medronho-mix by MC1R)"
    PERFORMER "Human Decay"
    INDEX 00 59:44:38
    INDEX 01 59:46:20
  TRACK 15 AUDIO
    TITLE "Pray Man"
    PERFORMER "Human Decay"
    INDEX 01 64:25:16
Код:
[url=https://fastpic.ru/view/43/2012/0624/90d66b2fbd8eb042fee52779d15ec1dc.jpg.html][img]http://i43.fastpic.ru/thumb/2012/0624/dc/90d66b2fbd8eb042fee52779d15ec1dc.jpeg[/img][/url][url=https://fastpic.ru/view/40/2012/0624/e51d76a153598eff9ca3f62f9575ea45.jpg.html][img]http://i40.fastpic.ru/thumb/2012/0624/45/e51d76a153598eff9ca3f62f9575ea45.jpeg[/img][/url][url=https://fastpic.ru/view/41/2012/0624/128e38495f4e8315f8ca3593e19e1d94.jpg.html][img]http://i41.fastpic.ru/thumb/2012/0624/94/128e38495f4e8315f8ca3593e19e1d94.jpeg[/img][/url][url=https://fastpic.ru/view/42/2012/0624/780122ca6bb73e6625fc0b64502ac8b0.jpg.html][img]http://i42.fastpic.ru/thumb/2012/0624/b0/780122ca6bb73e6625fc0b64502ac8b0.jpeg[/img][/url]
Правила, инструкции, FAQ!!!
Торрент  Добавлен [26 июн 2020, 19:40] Скачать торрент Магнет ссылка
Скачать торрент
[ Размер 21.06 КБ / Просмотров 9 ]

Статус
Проверен 
 
Размер  509.02 МБ
Приватный: Нет (DHT включён)
.torrent скачан  0
 


     Отправить личное сообщение
   
Страница 1 из 1
Показать сообщения за:  Поле сортировки  
Начать новую тему Ответить на тему


Сейчас этот форум просматривают: нет зарегистрированных пользователей и гости: 0


Вы не можете начинать темы
Вы не можете отвечать на сообщения
Вы не можете редактировать свои сообщения
Вы не можете удалять свои сообщения
Вы не можете добавлять вложения

Перейти:  
cron