Начать новую тему Ответить на тему
Статистика раздачи
Размер: 415.67 МБ | Добавлен: 26 июн 2020, 19:03 | Скачали: 0
Сидеров: 0  [0 байт/сек]    Личеров: 0  [0 байт/сек]
Пред. тема | След. тема 

Автор
Сообщение

СообщениеДобавлено: 26 июн 2020, 19:03 

Ответить с цитатой 

Heavy Water Factory / Cries From Hell (Remixes Of Pain)
Жанр: EBM, Electro, Industrial
Страна-производитель диска: Germany
Год издания диска: 1998
Издатель (лейбл): Off Beat
Номер по каталогу: O-105
Страна: US
Аудио кодек: FLAC (*.flac)
Тип рипа: image+.cue
Битрейт аудио: lossless
Продолжительность: 1:00:47.00
Источник (релизер): CD из личной коллекции.
Наличие сканов в содержимом раздачи: нет
Треклист:
01. Control (More Dirt Mix) 4:18
02. Place Of Torment (Mentia Mix) 5:11
03. Delusions ((Of Grandure) Mix) 4:15
04. Strange (Nineteen Hours A Week Mix) 5:43
05. Alone (Vocal Track Version) 4:04
06. Vampire (Tasty Mix) 3:50
07. Waking Up In Darkness (Mec's Pulsar Mix) 4:03
08. Perception Of Reality 5:05
09. Delusions (Left-Turn On Alburquerque Mix) 5:14
10. Better Than Dead (William West Is Dead Mix) 5:47
11. Everyone's In Heaven 3:29
12. Place Of Torment (Extended Mentia-Mix) 9:43
Код:
Exact Audio Copy V0.99 prebeta 5 from 4. May 2009
Отчёт EAC об извлечении, выполненном 10. сентября 2010, 19:24
Heavy Water Factory / Cries From Hell (Remixes Of Pain)
Дисковод: TSSTcorpCDDVDW TS-L632H   Adapter: 0  ID: 0
Режим чтения                 : Достоверность
Использование точного потока : Да
Отключение кэша аудио        : Да
Использование указателей C2  : Нет
Коррекция смещения при чтении                     : 6
Способность читать области Lead-in и Lead-out     : Нет
Заполнение пропущенных сэмплов тишиной            : Да
Удаление блоков с тишиной в начале и конце        : Нет
При вычислениях CRC использовались нулевые сэмплы : Да
Интерфейс                                         : Встроенный Win32-интерфейс для Win NT/2000
Выходной формат          : Пользовательский кодировщик
Выбранный битрейт        : 1024 kBit/s
Качество                 : Высокий
Добавление ID3-тэга      : Нет
Утилита сжатия           : C:\Program Files\Exact Audio Copy\FLAC\FLAC.EXE
Дополнительные параметры : -6 -V -T "ARTIST=%a" -T "TITLE=%t" -T "ALBUM=%g" -T "DATE=%y" -T "TRACKNUMBER=%n" -T "GENRE=%m" -T "COMMENT=%e" %s -o %d
TOC извлечённого CD
     Трек |   Старт  | Длительность | Начальный сектор | Конечный сектор
    ---------------------------------------------------------------------
       1  |  0:00.00 |    4:18.10   |           0      |      19359
       2  |  4:18.10 |    5:11.22   |       19360      |      42706
       3  |  9:29.32 |    4:15.55   |       42707      |      61886
       4  | 13:45.12 |    5:43.00   |       61887      |      87611
       5  | 19:28.12 |    4:04.40   |       87612      |     105951
       6  | 23:32.52 |    3:50.08   |      105952      |     123209
       7  | 27:22.60 |    4:03.12   |      123210      |     141446
       8  | 31:25.72 |    5:05.68   |      141447      |     164389
       9  | 36:31.65 |    5:14.05   |      164390      |     187944
      10  | 41:45.70 |    5:47.40   |      187945      |     214009
      11  | 47:33.35 |    3:29.65   |      214010      |     229749
      12  | 51:03.25 |    9:43.50   |      229750      |     273524
Характеристики диапазона извлечения и сообщения об ошибках
Выбранный диапазон
     Имя файла C:\Users\Алексей\Desktop\iPOD\Heavy Water Factory - Cries From Hell (Remixes Of Pain).wav
     Пиковый уровень 98.4 %
     Качество диапазона 100.0 %
     CRC теста 2C060DB4
     CRC копии 2C060DB4
     Копирование... OK
Ошибок не произошло
AccurateRip: сводка
Трек  1  точность не определена (достоверность 1)  [101B6257], AccurateRip вернул [D85AB26F]
Трек  2  точное извлечение (доверие 1)  [BB0E9BE7]
Трек  3  точное извлечение (доверие 1)  [47C86AAC]
Трек  4  точное извлечение (доверие 1)  [A30D8B63]
Трек  5  точное извлечение (доверие 1)  [447E25AC]
Трек  6  точное извлечение (доверие 1)  [376EF5C7]
Трек  7  точное извлечение (доверие 1)  [54ACB991]
Трек  8  точное извлечение (доверие 1)  [995179AE]
Трек  9  точное извлечение (доверие 1)  [F7E8B04E]
Трек 10  точное извлечение (доверие 1)  [2BD8D2BE]
Трек 11  точное извлечение (доверие 1)  [89435E16]
Трек 12  точность не определена (достоверность 1)  [44F329B4], AccurateRip вернул [91BFE47F]
10 трек(и) скопированы точно
 2 трек(и) не удалось проверить на точность
Некоторые треки не прошли проверку на точность
Конец отчёта
Код:
REM DISCID A10E3F0C
REM COMMENT "ExactAudioCopy v0.99pb5"
PERFORMER "Heavy Water Factory"
TITLE "Cries From Hell (Remixes Of Pain)"
FILE "Heavy Water Factory - Cries From Hell (Remixes Of Pain).flac" WAVE
  TRACK 01 AUDIO
    TITLE "Control [More Dirt Mix]"
    PERFORMER "Heavy Water Factory"
    INDEX 01 00:00:00
  TRACK 02 AUDIO
    TITLE "Place Of Torment [Mentia Mix]"
    PERFORMER "Heavy Water Factory"
    INDEX 00 04:15:67
    INDEX 01 04:18:10
  TRACK 03 AUDIO
    TITLE "Delusions [(Of Grandure) Mix]"
    PERFORMER "Heavy Water Factory"
    INDEX 00 09:28:02
    INDEX 01 09:29:32
  TRACK 04 AUDIO
    TITLE "Strange [Nineteen Hours A Week Mix]"
    PERFORMER "Heavy Water Factory"
    INDEX 00 13:43:45
    INDEX 01 13:45:12
  TRACK 05 AUDIO
    TITLE "Alone [Vocal Track Version]"
    PERFORMER "Heavy Water Factory"
    INDEX 00 19:26:30
    INDEX 01 19:28:12
  TRACK 06 AUDIO
    TITLE "Vampire [Tasty Mix]"
    PERFORMER "Heavy Water Factory"
    INDEX 00 23:30:40
    INDEX 01 23:32:52
  TRACK 07 AUDIO
    TITLE "Waking Up In Darkness [Mec's Pulsar Mix]"
    PERFORMER "Heavy Water Factory"
    INDEX 00 27:20:60
    INDEX 01 27:22:60
  TRACK 08 AUDIO
    TITLE "Perception Of Reality [Previously Un-Released]"
    PERFORMER "Heavy Water Factory"
    INDEX 00 31:23:47
    INDEX 01 31:25:72
  TRACK 09 AUDIO
    TITLE "Delusions [Left-Turn On Albuquerque Mix]"
    PERFORMER "Heavy Water Factory"
    INDEX 00 36:30:10
    INDEX 01 36:31:65
  TRACK 10 AUDIO
    TITLE "Better Than Dead [William West Is Dead Mix]"
    PERFORMER "Heavy Water Factory"
    INDEX 00 41:44:22
    INDEX 01 41:45:70
  TRACK 11 AUDIO
    TITLE "Everyone's In Heaven [Previously Un-Released]"
    PERFORMER "Heavy Water Factory"
    INDEX 00 47:31:30
    INDEX 01 47:33:35
  TRACK 12 AUDIO
    TITLE "Place Of Torment [Extended Mentia-Mix]"
    PERFORMER "Heavy Water Factory"
    INDEX 00 51:02:27
    INDEX 01 51:03:25
Правила, инструкции, FAQ!!!
Торрент  Добавлен [26 июн 2020, 19:03] Скачать торрент Магнет ссылка
Скачать торрент
[ Размер 16.98 КБ / Просмотров 5 ]

Статус
Проверен 
 
Размер  415.67 МБ
Приватный: Нет (DHT включён)
.torrent скачан  0
 


     Отправить личное сообщение
   
Страница 1 из 1
Показать сообщения за:  Поле сортировки  
Начать новую тему Ответить на тему


Сейчас этот форум просматривают: нет зарегистрированных пользователей и гости: 0


Вы не можете начинать темы
Вы не можете отвечать на сообщения
Вы не можете редактировать свои сообщения
Вы не можете удалять свои сообщения
Вы не можете добавлять вложения

Перейти:  
cron