Начать новую тему Ответить на тему
Статистика раздачи
Размер: 347.08 МБ | Добавлен: 26 июн 2020, 20:24 | Скачали: 0
Сидеров: 0  [0 байт/сек]    Личеров: 0  [0 байт/сек]
Пред. тема | След. тема 

Автор
Сообщение

СообщениеДобавлено: 26 июн 2020, 20:24 

Ответить с цитатой 

Stromkern - Light It Up
Жанр: Electro, Industrial
Год выпуска диска: 2007
Производитель диска: Россия (Soyuz Music)
Аудио кодек: FLAC
Тип рипа: image+.cue
Битрейт аудио: lossless
Продолжительность: 50:51
Трэклист:
01. Televised (5:46)
02. Reminders (6:05)
03. Slow Cascade (4:23)
04. Forgiven (5:10)
05. The Debate (2:48)
06. Ruin (4:48)
07. Sentinel (5:37)
08. Stand Up (4:47)
09. Hindsight (4:54)
10. Delete (6:33)
Exact Audio Copy V0.99 prebeta 5 from 4. May 2009
EAC extraction logfile from 21. November 2009, 0:20
Stromkern / Light It Up
Used drive : Optiarc DVD RW AD-7170A Adapter: 0 ID: 0
Read mode : Secure
Utilize accurate stream : Yes
Defeat audio cache : Yes
Make use of C2 pointers : No
Read offset correction : 48
Overread into Lead-In and Lead-Out : No
Fill up missing offset samples with silence : Yes
Delete leading and trailing silent blocks : No
Null samples used in CRC calculations : Yes
Used interface : Native Win32 interface for Win NT & 2000
Used output format : Internal WAV Routines
Sample format : 44.100 Hz; 16 Bit; Stereo
TOC of the extracted CD
Track | Start | Length | Start sector | End sector
---------------------------------------------------------
1 | 0:00.00 | 5:46.34 | 0 | 25983
2 | 5:46.34 | 6:05.13 | 25984 | 53371
3 | 11:51.47 | 4:23.34 | 53372 | 73130
4 | 16:15.06 | 5:09.40 | 73131 | 96345
5 | 21:24.46 | 2:48.12 | 96346 | 108957
6 | 24:12.58 | 4:48.16 | 108958 | 130573
7 | 29:00.74 | 5:36.41 | 130574 | 155814
8 | 34:37.40 | 4:47.00 | 155815 | 177339
9 | 39:24.40 | 4:53.65 | 177340 | 199379
10 | 44:18.30 | 6:32.48 | 199380 | 228827
Range status and errors
Selected range
Filename C:\Stromkern - Light It Up.wav
Peak level 99.9 %
Range quality 99.9 %
Test CRC 85AC2301
Copy CRC 85AC2301
Copy OK
No errors occurred
AccurateRip summary
Track 1 cannot be verified as accurate (confidence 5) [15885B6D], AccurateRip returned [BCAFF271]
Track 2 cannot be verified as accurate (confidence 5) [FAE1E9ED], AccurateRip returned [1E35ED1D]
Track 3 cannot be verified as accurate (confidence 5) [CB7FB0CE], AccurateRip returned [BD6A67C6]
Track 4 cannot be verified as accurate (confidence 5) [C7FD7C77], AccurateRip returned [4935B487]
Track 5 cannot be verified as accurate (confidence 5) [C7FC92FD], AccurateRip returned [E783BD8D]
Track 6 cannot be verified as accurate (confidence 5) [DF49179B], AccurateRip returned [43F281B3]
Track 7 cannot be verified as accurate (confidence 5) [73234264], AccurateRip returned [380AF8A4]
Track 8 cannot be verified as accurate (confidence 5) [85F1AA43], AccurateRip returned [6E85ADD3]
Track 9 cannot be verified as accurate (confidence 5) [CD70E769], AccurateRip returned [1C202B01]
Track 10 cannot be verified as accurate (confidence 5) [5940F88C], AccurateRip returned [347CF34B]
No tracks could be verified as accurate
You may have a different pressing from the one(s) in the database
End of status report
Доп. информация: источник рипа - собственный диск. Оригинальное издание вышло в 2004 г.
Правила, инструкции, FAQ!!!
Торрент  Добавлен [26 июн 2020, 20:24] Скачать торрент Магнет ссылка
Скачать торрент
[ Размер 217.53 КБ / Просмотров 9 ]

Статус
Проверен 
 
Размер  347.08 МБ
Приватный: Нет (DHT включён)
.torrent скачан  0
 


     Отправить личное сообщение
   
Страница 1 из 1
Показать сообщения за:  Поле сортировки  
Начать новую тему Ответить на тему


Сейчас этот форум просматривают: нет зарегистрированных пользователей и гости: 0


Вы не можете начинать темы
Вы не можете отвечать на сообщения
Вы не можете редактировать свои сообщения
Вы не можете удалять свои сообщения
Вы не можете добавлять вложения

Перейти:  
cron