Начать новую тему Ответить на тему
Статистика раздачи
Размер: 9.35 ГБ | Добавлен: 26 июн 2020, 21:11 | Скачали: 0
Сидеров: 0  [0 байт/сек]    Личеров: 0  [0 байт/сек]
Пред. тема | След. тема 

Автор
Сообщение

СообщениеДобавлено: 26 июн 2020, 21:11 

Ответить с цитатой 

Funker Vogt + Side Projects (Дискография) 20 альбомов
Жанр: EBM , Electro, Industrial
Год выпуска диска: 1996 - 2007
Страна: Germany
Аудио кодек: FLAC
Тип рипа: image+.cue
Битрейт аудио: lossless
Доп. информация:
Jens Kastel : Все началось в начале 90-х годов, когда Геррит Томас (Gerrit Thomas),
выходец из самой обыкновенной семьи самого обыкновенного немецкого городка Хамлена, начал
сочинять музыку просто ради забавы. Затем это вылилось в создание техно-индустриальной группы Ravenous.
Ситуация изменилась в январе 1995 года, когда у Геррита набралось много наработок,
которые не подходили по стилю к Ravenous, и вместе с вокалистом Йенсом Кастелем (Jens Kastel)
он создает Funker Vogt, параллельно продолжая работать с Ravenous, но по определенным
причинам старательно скрывая это обстоятельство. Менеджером и по совместительству поэтом
группы становится еще один член Ravenous, Кай Шмидт (Kai Schmidt). Название группы имеет
довольно несерьезное происхождение: слово "funker" означает "радио-оператор", и одновременно является шутливым наименованием Federal Armed Forces, где во время
образования группы служил некий Stephan Vogt, которого музыканты в шутку называли Funker Vogt. Прозвище настолько им понравилось, что они решили назвать таким образом собственный проект.
Gerrit Thomas
: В течение года музыканты записали достаточно материала для демонстрационной
ленты и разослали по звукозаписывающим компаниям. Первыми (но не единственными) откликнулись Zoth Ommog, и музыканты решили заключить контракт именно с ними.
Успех первого альбома ("Thanks For Nothing", 1996), записанного на минимуме оборудования на квартире у Геррита, оказался для музыкантов полной неожиданностью. Жесткие агрессивные ритмы, под которые человек может выплеснуть свои негативные эмоции на танцплощадке, моментально покорили многие клубы Германии. Сразу же последовали первые концертные выступления группы.
Основная тема, которая выражается в творчестве музыкантов - война. На сцене они появляются, как правило, в военной защитной одежде, лирика также постоянно несет в себе картины войны. Кай Шмидт утверждает, что пишет тексты на основе запомнившихся ощущений, основой для очередной песни может послужить всего лишь фраза или даже слово, однако война больше всего подходит под изначальный имидж группы, а также является одной из вечных тем в существовании человечества.
На сегодняшний день Funker Vogt - один из самых известных техно-индустриальных проектов мира. Их музыка немного изменяется от альбома к альбому,
становясь в основном более мелодичной и "дружелюбной". Однако на протяжении всего творческого пути у Геррита периодически накапливалось достаточно материала, который не вписывался ни в один из его существующих проектов. Так появились сайд-проекты Fusspilz 11, Z.E.T.A. X , Ravenous , Gecko Sector и Fictional (в последнем Геррит также выполняет работу вокалиста). Все эти проекты предполагали выпуск только одного альбома, хотя музыканты не исключают возможности продолжения работы в каком-либо из этих направлений.
#777продолжительность: 1:02:35

1 Black Hole (4:43)
2 A New Beginning (3:59)
3 Thanks For Nothing (6:08)
4 Animals (6:02)
5 This Circle (4:51)
6 Alone (5:25)
7 Suspended Animation (4:35)
8 The Land Of Milk & Honey (7:00)
9 Funker Vogt (5:07)
10 Remember Childhood (4:55)
11 Thanks For Nothing (Body Rapture Remix) (5:30)
12 A New Beginning (In Between Mix) (4:38)
Exact Audio Copy V0.99 prebeta 4 from 23. January 2008
Отчёт EAC об извлечении, выполненном 4. августа 2008, 20:47
Funker Vogt / Thanks For Nothing
Дисковод: Optiarc DVD RW AD-5200A Adapter: 0 ID: 1
Режим чтения : Достоверность
Использование точного потока : Да
Отключение кэша аудио : Да
Использование указателей C2 : Нет
Коррекция смещения при чтении : 48
Способность читать области Lead-in и Lead-out : Нет
Заполнение пропущенных сэмплов тишиной : Да
Удаление блоков с тишиной в начале и конце : Нет
При вычислениях CRC использовались нулевые сэмплы : Да
Интерфейс : Встроенный Win32-интерфейс для Win NT/2000
Выходной формат : Пользовательский кодировщик
Выбранный битрейт : 1024 kBit/s
Качество : Высокий
Добавление ID3-тэга : Нет
Утилита сжатия : C:\Program Files\Exact Audio Copy\FLAC\FLAC.EXE
Дополнительные параметры : -8 -V -T "ARTIST=%a" -T "TITLE=%t" -T "ALBUM=%g" -T "DATE=%y" -T "TRACKNUMBER=%n" -T "GENRE=%m" -T "COMMENT=%e" %s -o %d
TOC извлечённого CD
Трек | Старт | Длительность | Начальный сектор | Конечный сектор
---------------------------------------------------------------------
1 | 0:00.00 | 4:38.25 | 0 | 20874
2 | 4:38.25 | 3:58.30 | 20875 | 38754
3 | 8:36.55 | 6:07.37 | 38755 | 66316
4 | 14:44.17 | 6:00.07 | 66317 | 93323
5 | 20:44.24 | 4:51.49 | 93324 | 115197
6 | 25:35.73 | 6:58.53 | 115198 | 146600
7 | 32:34.51 | 5:25.08 | 146601 | 170983
8 | 37:59.59 | 4:49.40 | 170984 | 192698
9 | 42:49.24 | 5:05.01 | 192699 | 215574
10 | 47:54.25 | 4:32.16 | 215575 | 235990
11 | 52:26.41 | 5:30.49 | 235991 | 260789
12 | 57:57.15 | 4:38.02 | 260790 | 281641
Характеристики диапазона извлечения и сообщения об ошибках
Выбранный диапазон
Имя файла C:\Funker Vogt - Thanks For Nothing.wav
Пиковый уровень 99.9 %
Качество диапазона 100.0 %
CRC теста F8C3A9F8
CRC копии F8C3A9F8
Копирование... OK
Ошибок не произошло
Конец отчёта
AUDIOCHECKER v2.0 beta (build 457) - by Dester - opdester@freemail.hu
~~~~~~~~~~~~~~~~~~~~~~~~~~~~~~~~~~
-=== НЕ РЕДАКТИРУЙТЕ ЭТОТ ФАЙЛ! ===-
Путь: ...\1996 - Thanks For Nothing
1 -=- Funker Vogt - Thanks For Nothing.flac -=- CDDA (100%)
8444148
#777
продолжительность
: 1:08:42

1 Time Of Dreams (5:30)
2 Take Care! (4:44)
3 Stupid Incident (5:41)
4 Father (4:26)
5 Under Control (5:22)
6 Wartime (4:26)
7 Killing Fields (4:38)
8 Nothing New (5:23)
9 Fantasies (4:02)
10 Siegeszug (5:05)
11 Funker Vogt 2nd Unit (5:26)
12 Take Care! (Final Mix) (3:48)
13 Time Of Dreams (Heart-Core Mix) (4:12)
14 Take Care! (US Remix) (5:51)
Exact Audio Copy V0.99 prebeta 4 from 23. January 2008
Отчёт EAC об извлечении, выполненном 4. августа 2008, 21:40
Funker Vogt / We came to kill
Дисковод: Optiarc DVD RW AD-5200A Adapter: 0 ID: 1
Режим чтения : Достоверность
Использование точного потока : Да
Отключение кэша аудио : Да
Использование указателей C2 : Нет
Коррекция смещения при чтении : 48
Способность читать области Lead-in и Lead-out : Нет
Заполнение пропущенных сэмплов тишиной : Да
Удаление блоков с тишиной в начале и конце : Нет
При вычислениях CRC использовались нулевые сэмплы : Да
Интерфейс : Встроенный Win32-интерфейс для Win NT/2000
Выходной формат : Пользовательский кодировщик
Выбранный битрейт : 1024 kBit/s
Качество : Высокий
Добавление ID3-тэга : Нет
Утилита сжатия : C:\Program Files\Exact Audio Copy\FLAC\FLAC.EXE
Дополнительные параметры : -8 -V -T "ARTIST=%a" -T "TITLE=%t" -T "ALBUM=%g" -T "DATE=%y" -T "TRACKNUMBER=%n" -T "GENRE=%m" -T "COMMENT=%e" %s -o %d
TOC извлечённого CD
Трек | Старт | Длительность | Начальный сектор | Конечный сектор
---------------------------------------------------------------------
1 | 0:00.00 | 5:30.46 | 0 | 24795
2 | 5:30.46 | 4:44.68 | 24796 | 46163
3 | 10:15.39 | 5:41.21 | 46164 | 71759
4 | 15:56.60 | 4:26.35 | 71760 | 91744
5 | 20:23.20 | 5:22.32 | 91745 | 115926
6 | 25:45.52 | 4:26.51 | 115927 | 135927
7 | 30:12.28 | 4:38.21 | 135928 | 156798
8 | 34:50.49 | 5:23.72 | 156799 | 181095
9 | 40:14.46 | 4:02.73 | 181096 | 199318
10 | 44:17.44 | 5:05.15 | 199319 | 222208
11 | 49:22.59 | 5:26.68 | 222209 | 246726
12 | 54:49.52 | 3:48.51 | 246727 | 263877
13 | 58:38.28 | 4:12.17 | 263878 | 282794
14 | 62:50.45 | 5:51.49 | 282795 | 309168
Характеристики диапазона извлечения и сообщения об ошибках
Выбранный диапазон
Имя файла C:\Funker Vogt - We came to kill.wav
Пиковый уровень 99.9 %
Качество диапазона 99.9 %
CRC теста DD2D2B30
CRC копии DD2D2B30
Копирование... OK
Ошибок не произошло
Конец отчёта
AUDIOCHECKER v2.0 beta (build 457) - by Dester - opdester@freemail.hu
~~~~~~~~~~~~~~~~~~~~~~~~~~~~~~~~~~
-=== НЕ РЕДАКТИРУЙТЕ ЭТОТ ФАЙЛ! ===-
Путь: ...\1997 - We Сame To Kill
1 -=- Funker Vogt - We came to kill.flac -=- CDDA (100%)
258892276
#777
продолжительность
: 1:16:44

01 Civil War (7:22)
02 The Voices Of The Dead (5:21)
03 The International Killer (6:05)
04 Fortunes Of War (4:57)
05 Beyond Your Belief (6:37)
06 Tragic Hero (5:03)
07 Buried Alive (5:51)
08 Schizophrenia (4:48)
09 Pure War (4:49)
10 Shaven (5:36)
11 Seelenwanderung (4:23)
12 4th Dimension (5:56)
13 Civil War (Vogt Scope Mix) (5:23)
14 Martians On The Moon (4:26)
Exact Audio Copy V0.99 prebeta 4 from 23. January 2008
Отчёт EAC об извлечении, выполненном 4. августа 2008, 23:41
Funker Vogt / Execution Tracks
Дисковод: Optiarc DVD RW AD-5200A Adapter: 0 ID: 1
Режим чтения : Достоверность
Использование точного потока : Да
Отключение кэша аудио : Да
Использование указателей C2 : Нет
Коррекция смещения при чтении : 48
Способность читать области Lead-in и Lead-out : Нет
Заполнение пропущенных сэмплов тишиной : Да
Удаление блоков с тишиной в начале и конце : Нет
При вычислениях CRC использовались нулевые сэмплы : Да
Интерфейс : Встроенный Win32-интерфейс для Win NT/2000
Выходной формат : Пользовательский кодировщик
Выбранный битрейт : 1024 kBit/s
Качество : Высокий
Добавление ID3-тэга : Нет
Утилита сжатия : C:\Program Files\Exact Audio Copy\FLAC\FLAC.EXE
Дополнительные параметры : -8 -V -T "ARTIST=%a" -T "TITLE=%t" -T "ALBUM=%g" -T "DATE=%y" -T "TRACKNUMBER=%n" -T "GENRE=%m" -T "COMMENT=%e" %s -o %d
TOC извлечённого CD
Трек | Старт | Длительность | Начальный сектор | Конечный сектор
---------------------------------------------------------------------
1 | 0:00.00 | 7:22.67 | 0 | 33216
2 | 7:22.67 | 5:21.24 | 33217 | 57315
3 | 12:44.16 | 6:05.24 | 57316 | 84714
4 | 18:49.40 | 4:57.46 | 84715 | 107035
5 | 23:47.11 | 6:37.10 | 107036 | 136820
6 | 30:24.21 | 5:03.34 | 136821 | 159579
7 | 35:27.55 | 5:51.27 | 159580 | 185931
8 | 41:19.07 | 4:48.41 | 185932 | 207572
9 | 46:07.48 | 4:49.32 | 207573 | 229279
10 | 50:57.05 | 5:36.62 | 229280 | 254541
11 | 56:33.67 | 4:23.72 | 254542 | 274338
12 | 60:57.64 | 5:56.04 | 274339 | 301042
13 | 66:53.68 | 5:23.73 | 301043 | 325340
14 | 72:17.66 | 4:26.36 | 325341 | 345326
Характеристики диапазона извлечения и сообщения об ошибках
Выбранный диапазон
Имя файла C:\Funker Vogt - Execution Tracks.wav
Пиковый уровень 99.9 %
Качество диапазона 100.0 %
CRC теста 1A21C9F8
CRC копии 1A21C9F8
Копирование... OK
Ошибок не произошло
Конец отчёта
AUDIOCHECKER v2.0 beta (build 457) - by Dester - opdester@freemail.hu
~~~~~~~~~~~~~~~~~~~~~~~~~~~~~~~~~~
-=== НЕ РЕДАКТИРУЙТЕ ЭТОТ ФАЙЛ! ===-
Путь: ...\1998 - Execution Tracks
1 -=- Funker Vogt - Execution Tracks.flac -=- CDDA (99%)
154460356
#777CD1

продолжительность
: 00:38:01

1-1 Killing Fields (Killed Mix) (8:26)
1-2 Evil's Birth (5:33)
1-3 Vision (5:16)
1-4 The Race Is On (4:47)
1-5 Killing Fields (Guitar Fixer Mix II) (4:59)
1-6 Evil's Birth (Mezzo Mix) (4:40)
1-7 Black Hole (Live Version) (4:18)
EAC extraction logfile from 16. July 2007, 3:22 for CD
Funker Vogt / Killing Time Again Disc1 (US-Version)
Used drive : MATSHITADVD-RAM UJ-841S Adapter: 1 ID: 0
Read mode : Secure with NO C2, accurate stream, disable cache
Read offset correction : 102
Overread into Lead-In and Lead-Out : No
Used output format : C:\Program Files\Exact Audio Copy\flac.exe (User Defined Encoder)
192 kBit/s
Additional command line options : -8 -A tukey(0.25) -A gauss(0.1875) -b 4096 -V -T "artist=%a" -T "title=%t" -T "album=%g" -T "date=%y" -T "tracknumber=%n" -T "genre=%m" %s --sector-align
Other options :
Fill up missing offset samples with silence : Yes
Delete leading and trailing silent blocks : No
Installed external ASPI interface
Track 1
Filename C:\Documents and Settings\Natty\Desktop\Ripped\Funker Vogt\Funker Vogt - Killing Time Again\Funker Vogt - Killing Time Again - Disc1\01 - Funker Vogt - Killing Fields (Killed Mix).wav
Pre-gap length 0:00:03.00
Peak level 100.0 %
Track quality 100.0 %
Copy CRC 2F9004B0
Copy OK
Track 2
Filename C:\Documents and Settings\Natty\Desktop\Ripped\Funker Vogt\Funker Vogt - Killing Time Again\Funker Vogt - Killing Time Again - Disc1\02 - Funker Vogt - Evil's Birth.wav
Pre-gap length 0:00:02.45
Peak level 100.0 %
Track quality 100.0 %
Copy CRC 16951EA8
Copy OK
Track 3
Filename C:\Documents and Settings\Natty\Desktop\Ripped\Funker Vogt\Funker Vogt - Killing Time Again\Funker Vogt - Killing Time Again - Disc1\03 - Funker Vogt - Vision.wav
Pre-gap length 0:00:02.45
Peak level 100.0 %
Track quality 100.0 %
Copy CRC B9D42CE5
Copy OK
Track 4
Filename C:\Documents and Settings\Natty\Desktop\Ripped\Funker Vogt\Funker Vogt - Killing Time Again\Funker Vogt - Killing Time Again - Disc1\04 - Funker Vogt - The Race Is On.wav
Pre-gap length 0:00:02.46
Peak level 100.0 %
Track quality 100.0 %
Copy CRC 70E23E54
Copy OK
Track 5
Filename C:\Documents and Settings\Natty\Desktop\Ripped\Funker Vogt\Funker Vogt - Killing Time Again\Funker Vogt - Killing Time Again - Disc1\05 - Funker Vogt - Killing Fields (Guitar Fixer Mix Ii).wav
Pre-gap length 0:00:02.45
Peak level 100.0 %
Track quality 99.9 %
Copy CRC 3E37AF0D
Copy OK
Track 6
Filename C:\Documents and Settings\Natty\Desktop\Ripped\Funker Vogt\Funker Vogt - Killing Time Again\Funker Vogt - Killing Time Again - Disc1\06 - Funker Vogt - Evil's Birth (Mezzo Mix).wav
Pre-gap length 0:00:02.45
Peak level 100.0 %
Track quality 100.0 %
Copy CRC 17AB0B4F
Copy OK
Track 7
Filename C:\Documents and Settings\Natty\Desktop\Ripped\Funker Vogt\Funker Vogt - Killing Time Again\Funker Vogt - Killing Time Again - Disc1\07 - Funker Vogt - Black Hole (Live Version).wav
Pre-gap length 0:00:02.45
Peak level 100.0 %
Track quality 100.0 %
Copy CRC 01098A64
Copy OK
No errors occured
End of status report
AUDIOCHECKER v2.0 beta (build 457) - by Dester - opdester@freemail.hu
~~~~~~~~~~~~~~~~~~~~~~~~~~~~~~~~~~
-=== НЕ РЕДАКТИРУЙТЕ ЭТОТ ФАЙЛ! ===-
Путь: ...\Disc 01
01 -=- 01 - Killing Fields (Killed Mix).flac -=- CDDA (100%)
02 -=- 02 - Evil's Birth.flac -=- CDDA (100%)
03 -=- 03 - Vision.flac -=- CDDA (99%)
04 -=- 04 - The Race Is On.flac -=- CDDA (100%)
05 -=- 05 - Killing Fields (Guitar Fixer Mix II).flac -=- CDDA (100%)
06 -=- 06 - Evil's Birth (Mezzo Mix).flac -=- CDDA (100%)
07 -=- 07 - Black Hole (Live Version).flac -=- CDDA (100%)
Сводка 99,86% CDDA
225239604
CD2

продолжительность
: 00:58:57

2-1 Words Of Power (Highspeed Mix) (4:45)
2-2 Take Care (US Remix) (5:25)
2-3 The Third War (Original Mix) (5:19)
2-4 Wartime (FX Groove Mix) (5:27)
2-5 Killing Fields (Guitar Fixer Mix) (5:07)
2-6 Take Care (g2f 135) (Front 242 Remix) (5:18)
2-7 Fantasies (Burning In Hell) (2:10)
2-8 Words Of Power (Power Mix) (4:20)
2-9 Thanks For Nothing (Controlled Fusion Remix) (7:00)
2-10 Take Care (Booster +18 Mix) (4:47)
2-11 The Third War (Atomic Shell) (4:08)
2-12 Thanks For Nothing (In Strict Confidence Remix) (5:06)
EAC extraction logfile from 16. July 2007, 11:11 for CD
Funker Vogt / Killing Time Again Disc2 (US-Version)
Used drive : MATSHITADVD-RAM UJ-841S Adapter: 1 ID: 0
Read mode : Secure with NO C2, accurate stream, disable cache
Read offset correction : 102
Overread into Lead-In and Lead-Out : No
Used output format : C:\Program Files\Exact Audio Copy\flac.exe (User Defined Encoder)
192 kBit/s
Additional command line options : -8 -A tukey(0.25) -A gauss(0.1875) -b 4096 -V -T "artist=%a" -T "title=%t" -T "album=%g" -T "date=%y" -T "tracknumber=%n" -T "genre=%m" %s --sector-align
Other options :
Fill up missing offset samples with silence : Yes
Delete leading and trailing silent blocks : No
Installed external ASPI interface
Track 1
Filename C:\Documents and Settings\Natty\Desktop\Ripped\Funker Vogt\Funker Vogt - Killing Time Again\Funker Vogt - Killing Time Again - Disc2\01 - Funker Vogt - Words Of Power (Highspeed Mix).wav
Pre-gap length 0:00:03.00
Peak level 85.5 %
Track quality 100.0 %
Copy CRC 99A609B5
Copy OK
Track 2
Filename C:\Documents and Settings\Natty\Desktop\Ripped\Funker Vogt\Funker Vogt - Killing Time Again\Funker Vogt - Killing Time Again - Disc2\02 - Funker Vogt - Take Care (US Remix).wav
Pre-gap length 0:00:02.45
Peak level 91.2 %
Track quality 100.0 %
Copy CRC B6BC4545
Copy OK
Track 3
Filename C:\Documents and Settings\Natty\Desktop\Ripped\Funker Vogt\Funker Vogt - Killing Time Again\Funker Vogt - Killing Time Again - Disc2\03 - Funker Vogt - The Third War (Original Mix).wav
Pre-gap length 0:00:02.45
Peak level 89.6 %
Track quality 100.0 %
Copy CRC 0F4E3CC5
Copy OK
Track 4
Filename C:\Documents and Settings\Natty\Desktop\Ripped\Funker Vogt\Funker Vogt - Killing Time Again\Funker Vogt - Killing Time Again - Disc2\04 - Funker Vogt - Wartime (Fix Groove Mix).wav
Pre-gap length 0:00:02.45
Peak level 80.2 %
Track quality 100.0 %
Copy CRC 95F24C14
Copy OK
Track 5
Filename C:\Documents and Settings\Natty\Desktop\Ripped\Funker Vogt\Funker Vogt - Killing Time Again\Funker Vogt - Killing Time Again - Disc2\05 - Funker Vogt - Killing Fields (Guitar Fixer Mix I).wav
Pre-gap length 0:00:02.45
Peak level 91.0 %
Track quality 100.0 %
Copy CRC CC637E68
Copy OK
Track 6
Filename C:\Documents and Settings\Natty\Desktop\Ripped\Funker Vogt\Funker Vogt - Killing Time Again\Funker Vogt - Killing Time Again - Disc2\06 - Funker Vogt - Take Care [g2f 135] (Front 242 Remix).wav
Pre-gap length 0:00:02.45
Peak level 86.4 %
Track quality 100.0 %
Copy CRC 401AACD6
Copy OK
Track 7
Filename C:\Documents and Settings\Natty\Desktop\Ripped\Funker Vogt\Funker Vogt - Killing Time Again\Funker Vogt - Killing Time Again - Disc2\07 - Funker Vogt - Fantasies (Burning in Hell).wav
Pre-gap length 0:00:02.45
Peak level 84.9 %
Track quality 100.0 %
Copy CRC A76637E6
Copy OK
Track 8
Filename C:\Documents and Settings\Natty\Desktop\Ripped\Funker Vogt\Funker Vogt - Killing Time Again\Funker Vogt - Killing Time Again - Disc2\08 - Funker Vogt - Words of Power (Power Mix).wav
Pre-gap length 0:00:02.45
Peak level 91.5 %
Track quality 100.0 %
Copy CRC D451A9FD
Copy OK
Track 9
Filename C:\Documents and Settings\Natty\Desktop\Ripped\Funker Vogt\Funker Vogt - Killing Time Again\Funker Vogt - Killing Time Again - Disc2\09 - Funker Vogt - Thanks For Nothing (Controlled Fusion Remix).wav
Pre-gap length 0:00:02.45
Peak level 90.4 %
Track quality 100.0 %
Copy CRC 64112CAB
Copy OK
Track 10
Filename C:\Documents and Settings\Natty\Desktop\Ripped\Funker Vogt\Funker Vogt - Killing Time Again\Funker Vogt - Killing Time Again - Disc2\10 - Funker Vogt - Take Care (Booster + 18 Mix).wav
Pre-gap length 0:00:02.45
Peak level 90.3 %
Track quality 99.9 %
Copy CRC 6364F53D
Copy OK
Track 11
Filename C:\Documents and Settings\Natty\Desktop\Ripped\Funker Vogt\Funker Vogt - Killing Time Again\Funker Vogt - Killing Time Again - Disc2\11 - Funker Vogt - The Third War (Atomix Shell).wav
Pre-gap length 0:00:02.45
Peak level 91.8 %
Track quality 100.0 %
Copy CRC AC6EDB46
Copy OK
Track 12
Filename C:\Documents and Settings\Natty\Desktop\Ripped\Funker Vogt\Funker Vogt - Killing Time Again\Funker Vogt - Killing Time Again - Disc2\12 - Funker Vogt - Thanks For Nothing (In Strict Confidence Remix).wav
Pre-gap length 0:00:02.45
Peak level 100.0 %
Track quality 100.0 %
Copy CRC 4BD8979D
Copy OK
No errors occured
End of status report
AUDIOCHECKER v2.0 beta (build 457) - by Dester - opdester@freemail.hu
~~~~~~~~~~~~~~~~~~~~~~~~~~~~~~~~~~
-=== НЕ РЕДАКТИРУЙТЕ ЭТОТ ФАЙЛ! ===-
Путь: ...\Disc 02
01 -=- 01 - Words Of Power (Highspeed Mix).flac -=- CDDA (100%)
02 -=- 02 - Take Care (US Remix).flac -=- CDDA (100%)
03 -=- 03 - The Third War (Original Mix).flac -=- CDDA (100%)
04 -=- 04 - Wartime (Fix Groove Mix).flac -=- CDDA (100%)
05 -=- 05 - Killing Fields (Guitar Fixer Mix I).flac -=- CDDA (100%)
06 -=- 06 - Take Care (G2F 135) (Front 242 Remix).flac -=- CDDA (100%)
07 -=- 07 - Fantasies (Burning In Hell).flac -=- CDDA (100%)
08 -=- 08 - Words Of Power (Power Mix).flac -=- CDDA (100%)
09 -=- 09 - Thanks For Nothing (Controlled Fusion Remix).flac -=- CDDA (100%)
10 -=- 10 - Take Care (Booster + 18 Mix).flac -=- CDDA (100%)
11 -=- 11 - The Third War (Atomix Shell).flac -=- CDDA (100%)
12 -=- 12 - Thanks For Nothing (In Strict Confidence Remix).flac -=- CDDA (100%)
Сводка 100,00% CDDA
115200964
#777
продолжительность
: 00:35:08

1 Funker Vogt Fortunes of War (Vaporized Mix) (4:37)
2 Funker Vogt International Killer (We Won the War Mix) (5:31)
3 Funker Vogt Civil War (Tripping in Boot Camp Mix) (5:42)
4 Velvet Acid Christ Futile (Resisted) (5:28)
5 Velvet Acid Christ Malfunction (Destructive) (6:47)
6 Velvet Acid Christ The Dead (Alive) (7:01)
Exact Audio Copy V0.99 prebeta 4 from 23. January 2008
Отчёт EAC об извлечении, выполненном 5. августа 2008, 3:42
Velvet Acid Christ vs. Funker Vogt / The Remix Wars : Strike 4
Дисковод: Optiarc DVD RW AD-5200A Adapter: 0 ID: 1
Режим чтения : Достоверность
Использование точного потока : Да
Отключение кэша аудио : Да
Использование указателей C2 : Нет
Коррекция смещения при чтении : 48
Способность читать области Lead-in и Lead-out : Нет
Заполнение пропущенных сэмплов тишиной : Да
Удаление блоков с тишиной в начале и конце : Нет
При вычислениях CRC использовались нулевые сэмплы : Да
Интерфейс : Встроенный Win32-интерфейс для Win NT/2000
Выходной формат : Пользовательский кодировщик
Выбранный битрейт : 1024 kBit/s
Качество : Высокий
Добавление ID3-тэга : Нет
Утилита сжатия : C:\Program Files\Exact Audio Copy\FLAC\FLAC.EXE
Дополнительные параметры : -8 -V -T "ARTIST=%a" -T "TITLE=%t" -T "ALBUM=%g" -T "DATE=%y" -T "TRACKNUMBER=%n" -T "GENRE=%m" -T "COMMENT=%e" %s -o %d
TOC извлечённого CD
Трек | Старт | Длительность | Начальный сектор | Конечный сектор
---------------------------------------------------------------------
1 | 0:00.00 | 4:37.10 | 0 | 20784
2 | 4:37.10 | 5:31.47 | 20785 | 45656
3 | 10:08.57 | 5:42.08 | 45657 | 71314
4 | 15:50.65 | 5:28.45 | 71315 | 95959
5 | 21:19.35 | 6:47.07 | 95960 | 126491
6 | 28:06.42 | 7:01.33 | 126492 | 158099
Характеристики диапазона извлечения и сообщения об ошибках
Выбранный диапазон
Имя файла C:\Velvet Acid Christ vs. Funker Vogt - The Remix Wars Strike 4.wav
Пиковый уровень 75.3 %
Качество диапазона 100.0 %
CRC теста F9CDAF20
CRC копии F9CDAF20
Копирование... OK
Ошибок не произошло
Конец отчёта
AUDIOCHECKER v2.0 beta (build 457) - by Dester - opdester@freemail.hu
~~~~~~~~~~~~~~~~~~~~~~~~~~~~~~~~~~
-=== НЕ РЕДАКТИРУЙТЕ ЭТОТ ФАЙЛ! ===-
Путь: ...\1999 - The Remix Wars Strike 4
1 -=- Velvet Acid Christ vs. Funker Vogt - The Remix Wars Strike 4.flac -=- CDDA (99%)
51683828
#777
продолжительность
: 1:10:12

1 Sins (6:22)
2 Gunman (4:44)
3 Black Market Dealers (5:31)
4 Maschine Zeit (6:20)
5 Nuclear Winter (4:08)
6 Under Deck (5:46)
7 Cold War (4:48)
8 The Journey (5:52)
9 Nothing To Include (6:29)
10 The Last (4:39)
11 Zeit (4:46)
12 Black Market Dealers (Stop Mix) (5:13)
13 The Last (Survival Tour Edit) (5:07)
Exact Audio Copy V0.99 prebeta 4 from 23. January 2008
Отчёт EAC об извлечении, выполненном 4. августа 2008, 18:35
Funker Vogt / Maschine Zeit ltd
Дисковод: Optiarc DVD RW AD-5200A Adapter: 0 ID: 1
Режим чтения : Достоверность
Использование точного потока : Да
Отключение кэша аудио : Да
Использование указателей C2 : Нет
Коррекция смещения при чтении : 48
Способность читать области Lead-in и Lead-out : Нет
Заполнение пропущенных сэмплов тишиной : Да
Удаление блоков с тишиной в начале и конце : Нет
При вычислениях CRC использовались нулевые сэмплы : Да
Интерфейс : Встроенный Win32-интерфейс для Win NT/2000
Выходной формат : Пользовательский кодировщик
Выбранный битрейт : 1024 kBit/s
Качество : Высокий
Добавление ID3-тэга : Нет
Утилита сжатия : C:\Program Files\Exact Audio Copy\FLAC\FLAC.EXE
Дополнительные параметры : -8 -V -T "ARTIST=%a" -T "TITLE=%t" -T "ALBUM=%g" -T "DATE=%y" -T "TRACKNUMBER=%n" -T "GENRE=%m" -T "COMMENT=%e" %s -o %d
TOC извлечённого CD
Трек | Старт | Длительность | Начальный сектор | Конечный сектор
---------------------------------------------------------------------
1 | 0:00.00 | 6:24.60 | 0 | 28859
2 | 6:24.60 | 4:46.36 | 28860 | 50345
3 | 11:11.21 | 5:33.12 | 50346 | 75332
4 | 16:44.33 | 6:20.24 | 75333 | 103856
5 | 23:04.57 | 4:10.64 | 103857 | 122670
6 | 27:15.46 | 5:48.06 | 122671 | 148776
7 | 33:03.52 | 4:50.69 | 148777 | 170595
8 | 37:54.46 | 5:54.31 | 170596 | 197176
9 | 43:49.02 | 6:31.00 | 197177 | 226501
10 | 50:20.02 | 4:41.43 | 226502 | 247619
11 | 55:01.45 | 4:48.17 | 247620 | 269236
12 | 59:49.62 | 5:15.13 | 269237 | 292874
13 | 65:05.00 | 5:07.48 | 292875 | 315947
Характеристики диапазона извлечения и сообщения об ошибках
Выбранный диапазон
Имя файла C:\Funker Vogt - Maschine Zeit ltd.wav
Пиковый уровень 99.9 %
Качество диапазона 100.0 %
CRC теста CB42CD25
CRC копии CB42CD25
Копирование... OK
Ошибок не произошло
Конец отчёта
AUDIOCHECKER v2.0 beta (build 457) - by Dester - opdester@freemail.hu
~~~~~~~~~~~~~~~~~~~~~~~~~~~~~~~~~~
-=== НЕ РЕДАКТИРУЙТЕ ЭТОТ ФАЙЛ! ===-
Путь: ...\2000 - Maschine Zeit ltd
1 -=- Funker Vogt - Maschine Zeit ltd.flac -=- CDDA (100%)
49418564
#777CD1

продолжительность
: 00:45:54

01 Subspace (5:31)
02 Body Count (6:35)
03 A Dream (5:43)
04 Follow Me (4:58)
05 Black Market Dealer (Maschinen-Mix) (7:17)
06 Maschinen Zeit (Maschinen-Mix) (4:47)
07 The Last (Maschinen-Mix) (5:20)
08 Nothing To Include (Maschinen-Mix) (5:40)
EAC extraction logfile from 16. September 2007, 13:51 for CD
Funker Vogt / T (disc 1)
Used drive : LITE-ON DVDRW LDW-811S Adapter: 0 ID: 2
Read mode : Secure with NO C2, accurate stream, disable cache
Read offset correction : 12
Overread into Lead-In and Lead-Out : No
Used output format : D:\Program Files\Exact Audio Copy\flac.exe (User Defined Encoder)
128 kBit/s
Additional command line options : -V -8 -T "artist=%a" -T "title=%t" -T "album=%g" -T "date=%y" -T "tracknumber=%n" -T "genre=%m" %s
Other options :
Fill up missing offset samples with silence : Yes
Delete leading and trailing silent blocks : No
Installed external ASPI interface
Track 1
Filename D:\Unsorted\(0000--Uploads\Funker Vogt - T\disc1\01 - Funker Vogt - Subspace.wav
Pre-gap length 0:00:02.00
Peak level 98.8 %
Track quality 100.0 %
Test CRC 8B0C19B3
Copy CRC 8B0C19B3
Copy OK
Track 2
Filename D:\Unsorted\(0000--Uploads\Funker Vogt - T\disc1\02 - Funker Vogt - Body Count.wav
Pre-gap length 0:00:00.98
Peak level 98.8 %
Track quality 100.0 %
Test CRC 2936AC0A
Copy CRC 2936AC0A
Copy OK
Track 3
Filename D:\Unsorted\(0000--Uploads\Funker Vogt - T\disc1\03 - Funker Vogt - A Dream.wav
Pre-gap length 0:00:01.98
Peak level 98.8 %
Track quality 100.0 %
Test CRC C1A066C7
Copy CRC C1A066C7
Copy OK
Track 4
Filename D:\Unsorted\(0000--Uploads\Funker Vogt - T\disc1\04 - Funker Vogt - Follow Me.wav
Peak level 98.8 %
Track quality 100.0 %
Test CRC F1E0929B
Copy CRC F1E0929B
Copy OK
Track 5
Filename D:\Unsorted\(0000--Uploads\Funker Vogt - T\disc1\05 - Funker Vogt - Black Market Dealers (Maschinen-Mix).wav
Peak level 98.8 %
Track quality 100.0 %
Test CRC 072D0583
Copy CRC 072D0583
Copy OK
Track 6
Filename D:\Unsorted\(0000--Uploads\Funker Vogt - T\disc1\06 - Funker Vogt - Maschine Zeit (Maschinen-Mix).wav
Pre-gap length 0:00:01.97
Peak level 98.8 %
Track quality 100.0 %
Test CRC 663AD1AA
Copy CRC 663AD1AA
Copy OK
Track 7
Filename D:\Unsorted\(0000--Uploads\Funker Vogt - T\disc1\07 - Funker Vogt - The Last (Maschinen-Mix).wav
Peak level 98.8 %
Track quality 99.9 %
Test CRC 46645B9A
Copy CRC 46645B9A
Copy OK
Track 8
Filename D:\Unsorted\(0000--Uploads\Funker Vogt - T\disc1\08 - Funker Vogt - Nothing To Include (Maschinen-Mix).wav
Peak level 98.8 %
Track quality 100.0 %
Test CRC 4CC6A132
Copy CRC 4CC6A132
Copy OK
No errors occured
End of status report
AUDIOCHECKER v2.0 beta (build 457) - by Dester - opdester@freemail.hu
~~~~~~~~~~~~~~~~~~~~~~~~~~~~~~~~~~
-=== НЕ РЕДАКТИРУЙТЕ ЭТОТ ФАЙЛ! ===-
Путь: ...\Disc 01
01 -=- 01 - Subspace.flac -=- CDDA (100%)
02 -=- 02 - Body Count.flac -=- CDDA (100%)
03 -=- 03 - A Dream.flac -=- CDDA (100%)
04 -=- 04 - Follow Me.flac -=- CDDA (100%)
05 -=- 05 - Black Market Dealers (Maschinen-Mix).flac -=- CDDA (99%)
06 -=- 06 - Maschine Zeit (Maschinen-Mix).flac -=- CDDA (100%)
07 -=- 07 - The Last (Maschinen-Mix).flac -=- CDDA (99%)
08 -=- 08 - Nothing To Include (Maschinen-Mix).flac -=- CDDA (100%)
Сводка 99,75% CDDA
6687316
CD2

продолжительность
: 00:31:48

01 Sins (Traum-Mix) (6:03)
02 Cold War (Traum-Mix) (4:55)
03 The Journey (Traum-Mix) (6:37)
04 The Last (Das Ich-Remix) (4:45)
05 Under Deck (Beborn Beton-Remix) (4:56)
06 Black Market Dealer (Bunkerromantik-Mix) (4:30)
EAC extraction logfile from 16. September 2007, 13:26 for CD
Funker Vogt / T (disc 2)
Used drive : LITE-ON DVDRW LDW-811S Adapter: 0 ID: 2
Read mode : Secure with NO C2, accurate stream, disable cache
Read offset correction : 12
Overread into Lead-In and Lead-Out : No
Used output format : D:\Program Files\Exact Audio Copy\flac.exe (User Defined Encoder)
128 kBit/s
Additional command line options : -V -8 -T "artist=%a" -T "title=%t" -T "album=%g" -T "date=%y" -T "tracknumber=%n" -T "genre=%m" %s
Other options :
Fill up missing offset samples with silence : Yes
Delete leading and trailing silent blocks : No
Installed external ASPI interface
Track 1
Filename D:\Unsorted\(0000--Uploads\Funker Vogt - T\disc2\01 - Funker Vogt - Sins (Traum Mix).wav
Pre-gap length 0:00:02.00
Peak level 98.8 %
Track quality 100.0 %
Test CRC 7DAB4B84
Copy CRC 7DAB4B84
Copy OK
Track 2
Filename D:\Unsorted\(0000--Uploads\Funker Vogt - T\disc2\02 - Funker Vogt - Cold War (Traum Mix).wav
Peak level 98.8 %
Track quality 100.0 %
Test CRC BF4B6469
Copy CRC BF4B6469
Copy OK
Track 3
Filename D:\Unsorted\(0000--Uploads\Funker Vogt - T\disc2\03 - Funker Vogt - The Journey (Traum Mix).wav
Peak level 98.8 %
Track quality 100.0 %
Test CRC E25C6384
Copy CRC E25C6384
Copy OK
Track 4
Filename D:\Unsorted\(0000--Uploads\Funker Vogt - T\disc2\04 - Funker Vogt - The Last (Das Ich Remix).wav
Pre-gap length 0:00:01.00
Peak level 98.8 %
Track quality 100.0 %
Test CRC 32AD483D
Copy CRC 32AD483D
Copy OK
Track 5
Filename D:\Unsorted\(0000--Uploads\Funker Vogt - T\disc2\05 - Funker Vogt - Under Deck (Beborn Beton Remix).wav
Pre-gap length 0:00:02.00
Peak level 98.8 %
Track quality 100.0 %
Test CRC 36B6B2FB
Copy CRC 36B6B2FB
Copy OK
Track 6
Filename D:\Unsorted\(0000--Uploads\Funker Vogt - T\disc2\06 - Funker Vogt - Black Market Dealers (bunkerromantik Mix by Lґame immortelle).wav
Pre-gap length 0:00:02.00
Peak level 100.0 %
Track quality 100.0 %
Test CRC BFD089C1
Copy CRC BFD089C1
Copy OK
No errors occured
End of status report
AUDIOCHECKER v2.0 beta (build 457) - by Dester - opdester@freemail.hu
~~~~~~~~~~~~~~~~~~~~~~~~~~~~~~~~~~
-=== НЕ РЕДАКТИРУЙТЕ ЭТОТ ФАЙЛ! ===-
Путь: ...\Disc 02
01 -=- 01 - Sins (Traum Mix).flac -=- CDDA (100%)
02 -=- 02 - Cold War (Traum Mix).flac -=- CDDA (100%)
03 -=- 03 - The Journey (Traum Mix).flac -=- CDDA (100%)
04 -=- 04 - The Last (Das Ich Remix).flac -=- CDDA (100%)
05 -=- 05 - Under Deck (Beborn Beton Remix).flac -=- CDDA (100%)
06 -=- 06 - Black Market Dealers (Bunkerromantik Mix By l'Ame Immortelle).flac -=- CDDA (100%)
Сводка 100,00% CDDA
170787556
#777
продолжительность
: 0:35:20

1 Funker Vogt (Completed) (4:22)
2 Funker Vogt Second Unit (Krolled) (5:32)
3 Black Hole (Re/Worked) (5:30)
4 Funker Vogt (March On) (3:56)
5 Funker Vogt Second Unit (Transmitted) (5:08)
6 Black Hole (Blind) (5:58)
7 Taxi Zum Mars (5:09)
Syrup 0.9.9.44, Track.cfg v.0992
Exact Audio Copy V0.99 prebeta 3 from 28. July 2007
EAC extraction logfile from 29. April 2008, 12:28
Funker Vogt / Code 7477
Used drive : TSSTcorpCDDVDW SH-S203B Adapter: 2 ID: 2
Read mode : Secure
Utilize accurate stream : Yes
Defeat audio cache : No
Make use of C2 pointers : No
Read offset correction : 6
Overread into Lead-In and Lead-Out : No
Fill up missing offset samples with silence : Yes
Delete leading and trailing silent blocks : No
Null samples used in CRC calculations : Yes
Used interface : Native Win32 interface for Win NT & 2000
Gap handling : Appended to previous track
Used output format : User Defined Encoder
Selected bitrate : 128 kBit/s
Quality : High
Add ID3 tag : No
Command line compressor : C:\Program Files\Exact Audio Copy\Syrup\Syrup.exe
Additional command line options : REACT %o %s %d "%a" "%g" "%t" "%n" "%x" "%y" "%m" "%e" "%f" "%b" %r
TOC of the extracted CD
Track | Start | Length | Start sector | End sector
---------------------------------------------------------
1 | 0:00.00 | 4:20.56 | 0 | 19555
2 | 4:20.56 | 5:30.02 | 19556 | 44307
3 | 9:50.58 | 5:28.51 | 44308 | 68958
4 | 15:19.34 | 3:54.72 | 68959 | 86580
5 | 19:14.31 | 5:06.16 | 86581 | 109546
6 | 24:20.47 | 5:56.26 | 109547 | 136272
7 | 30:16.73 | 5:04.67 | 136273 | 159139
Track 1
Filename C:\DOCUME~1\teh\LOCALS~1\Temp\Syrup\Funker Vogt - Code 7477 - 01 - Funker Vogt (Completed).wav
Pre-gap length 0:00:02.00
Peak level 99.9 %
Track quality 100.0 %
Test CRC 22EBB005
Copy CRC 22EBB005
Accurately ripped (confidence 2) [E1A6AD0E]
Copy OK
Track 2
Filename C:\DOCUME~1\teh\LOCALS~1\Temp\Syrup\Funker Vogt - Code 7477 - 02 - Funker Vogt 2nd Unit (Krolled).wav
Pre-gap length 0:00:03.16
Peak level 99.9 %
Track quality 100.0 %
Test CRC 7090B869
Copy CRC 7090B869
Accurately ripped (confidence 2) [5C08DF78]
Copy OK
Track 3
Filename C:\DOCUME~1\teh\LOCALS~1\Temp\Syrup\Funker Vogt - Code 7477 - 03 - Black Hole (re,worked).wav
Pre-gap length 0:00:02.86
Peak level 99.9 %
Track quality 100.0 %
Test CRC ABD1CF38
Copy CRC ABD1CF38
Accurately ripped (confidence 2) [A45F0BC9]
Copy OK
Track 4
Filename C:\DOCUME~1\teh\LOCALS~1\Temp\Syrup\Funker Vogt - Code 7477 - 04 - Funker Vogt (March on!).wav
Pre-gap length 0:00:03.32
Peak level 99.9 %
Track quality 100.0 %
Test CRC 1A04DC4E
Copy CRC 1A04DC4E
Accurately ripped (confidence 2) [AF79ECEC]
Copy OK
Track 5
Filename C:\DOCUME~1\teh\LOCALS~1\Temp\Syrup\Funker Vogt - Code 7477 - 05 - Funker Vogt 2nd Unit (Transmitted).wav
Pre-gap length 0:00:03.16
Peak level 99.9 %
Track quality 100.0 %
Test CRC B35D6F93
Copy CRC B35D6F93
Accurately ripped (confidence 2) [06BA7B3D]
Copy OK
Track 6
Filename C:\DOCUME~1\teh\LOCALS~1\Temp\Syrup\Funker Vogt - Code 7477 - 06 - Black Hole (Blind).wav
Pre-gap length 0:00:02.84
Peak level 99.9 %
Track quality 100.0 %
Test CRC 1BDEBC11
Copy CRC 1BDEBC11
Accurately ripped (confidence 2) [4D8AC4DF]
Copy OK
Track 7
Filename C:\DOCUME~1\teh\LOCALS~1\Temp\Syrup\Funker Vogt - Code 7477 - 07 - Bonus - Taxi zum Mars.wav
Pre-gap length 0:00:02.86
Peak level 99.9 %
Track quality 100.0 %
Test CRC D6AB44EB
Copy CRC D6AB44EB
Accurately ripped (confidence 2) [65D1D8D8]
Copy OK
All tracks accurately ripped
No errors occurred
End of status report
AUDIOCHECKER v2.0 beta (build 457) - by Dester - opdester@freemail.hu
~~~~~~~~~~~~~~~~~~~~~~~~~~~~~~~~~~
-=== НЕ РЕДАКТИРУЙТЕ ЭТОТ ФАЙЛ! ===-
Путь: ...\2001 - Code 7477 (CDEP)
01 -=- 01 - Funker Vogt - Funker Vogt (Completed).flac -=- CDDA (100%)
02 -=- 02 - Funker Vogt - Funker Vogt 2nd Unit (Krolled).flac -=- CDDA (100%)
03 -=- 03 - Funker Vogt - Black Hole (re-worked).flac -=- MPEG (95%)
04 -=- 04 - Funker Vogt - Funker Vogt (March on!).flac -=- CDDA (100%)
05 -=- 05 - Funker Vogt - Funker Vogt 2nd Unit (Transmitted).flac -=- CDDA (100%)
06 -=- 06 - Funker Vogt - Black Hole (Blind).flac -=- CDDA (100%)
07 -=- 07 - Funker Vogt - Bonus - Taxi zum Mars.flac -=- CDDA (99%)
Сводка 86,29% CDDA
265309092
#777
продолжительность
: 00:20:14

1 Subspace (Multi-User-Mix) (5:25)
2 Subspace (Video Edit) (3:33)
3 Subspace (Connected) (5:45)
4 Subspace (5:31)
Syrup 0.9.9.44, Track.cfg v.0992
Exact Audio Copy V0.99 prebeta 3 from 28. July 2007
EAC extraction logfile from 29. April 2008, 12:01
Funker Vogt / Subspace
Used drive : TSSTcorpCDDVDW SH-S203B Adapter: 2 ID: 2
Read mode : Secure
Utilize accurate stream : Yes
Defeat audio cache : No
Make use of C2 pointers : No
Read offset correction : 6
Overread into Lead-In and Lead-Out : No
Fill up missing offset samples with silence : Yes
Delete leading and trailing silent blocks : No
Null samples used in CRC calculations : Yes
Used interface : Native Win32 interface for Win NT & 2000
Gap handling : Appended to previous track
Used output format : User Defined Encoder
Selected bitrate : 128 kBit/s
Quality : High
Add ID3 tag : No
Command line compressor : C:\Program Files\Exact Audio Copy\Syrup\Syrup.exe
Additional command line options : REACT %o %s %d "%a" "%g" "%t" "%n" "%x" "%y" "%m" "%e" "%f" "%b" %r
TOC of the extracted CD
Track | Start | Length | Start sector | End sector
---------------------------------------------------------
1 | 0:00.00 | 5:26.30 | 0 | 24479
2 | 5:26.30 | 3:33.58 | 24480 | 40512
3 | 9:00.13 | 5:45.51 | 40513 | 66438
4 | 14:45.64 | 5:31.00 | 66439 | 91263
5 | 22:48.64 | 17:56.71 | 102664 | 183434
Track 1
Filename C:\DOCUME~1\teh\LOCALS~1\Temp\Syrup\Funker Vogt - Subspace - 01 - Subspace (multi-user-mix).wav
Pre-gap length 0:00:02.00
Peak level 98.8 %
Track quality 99.9 %
Test CRC 7F7B0921
Copy CRC 7F7B0921
Track not present in AccurateRip database
Copy OK
Track 2
Filename C:\DOCUME~1\teh\LOCALS~1\Temp\Syrup\Funker Vogt - Subspace - 02 - Subspace (video edit).wav
Peak level 98.8 %
Track quality 100.0 %
Test CRC 7AD89665
Copy CRC 7AD89665
Track not present in AccurateRip database
Copy OK
Track 3
Filename C:\DOCUME~1\teh\LOCALS~1\Temp\Syrup\Funker Vogt - Subspace - 03 - Subspace (connected).wav
Peak level 98.8 %
Track quality 99.9 %
Test CRC EFFF48B9
Copy CRC EFFF48B9
Track not present in AccurateRip database
Copy OK
Track 4
Filename C:\DOCUME~1\teh\LOCALS~1\Temp\Syrup\Funker Vogt - Subspace - 04 - Subspace.wav
Peak level 98.8 %
Track quality 100.0 %
Test CRC 2D5383E1
Copy CRC 2D5383E1
Track not present in AccurateRip database
Copy OK
None of the tracks are present in the AccurateRip database
No errors occurred
End of status report
AUDIOCHECKER v2.0 beta (build 457) - by Dester - opdester@freemail.hu
~~~~~~~~~~~~~~~~~~~~~~~~~~~~~~~~~~
-=== НЕ РЕДАКТИРУЙТЕ ЭТОТ ФАЙЛ! ===-
Путь: ...\2001 - Subspace (CDM)
01 -=- 01 - Funker Vogt - Subspace (multi-user-mix).flac -=- CDDA (100%)
02 -=- 02 - Funker Vogt - Subspace (video edit).flac -=- MPEG (80%)
03 -=- 03 - Funker Vogt - Subspace (connected).flac -=- CDDA (100%)
04 -=- 04 - Funker Vogt - Subspace.flac -=- CDDA (100%)
Сводка 80,00% CDDA
203909188
#777
продолжительность
: 1:09:34

1 Date Of Expiration (6:06)
2 This World (5:05)
3 History (5:09)
4 Obscure Pictures (5:04)
5 Compulsions (5:37)
6 Prisoners Of War (4:38)
7 Final Thrill (4:41)
8 Fallen Man (5:00)
9 Stolen Thoughts (4:37)
10 Lügner! (5:24)
11 Faster Life (5:27)
12 Red Queen (12:17)
Exact Audio Copy V0.99 prebeta 4 from 23. January 2008
Отчёт EAC об извлечении, выполненном 5. августа 2008, 1:47
Funker Vogt / Survivor
Дисковод: Optiarc DVD RW AD-5200A Adapter: 0 ID: 1
Режим чтения : Достоверность
Использование точного потока : Да
Отключение кэша аудио : Да
Использование указателей C2 : Нет
Коррекция смещения при чтении : 48
Способность читать области Lead-in и Lead-out : Нет
Заполнение пропущенных сэмплов тишиной : Да
Удаление блоков с тишиной в начале и конце : Нет
При вычислениях CRC использовались нулевые сэмплы : Да
Интерфейс : Встроенный Win32-интерфейс для Win NT/2000
Выходной формат : Пользовательский кодировщик
Выбранный битрейт : 1024 kBit/s
Качество : Высокий
Добавление ID3-тэга : Нет
Утилита сжатия : C:\Program Files\Exact Audio Copy\FLAC\FLAC.EXE
Дополнительные параметры : -8 -V -T "ARTIST=%a" -T "TITLE=%t" -T "ALBUM=%g" -T "DATE=%y" -T "TRACKNUMBER=%n" -T "GENRE=%m" -T "COMMENT=%e" %s -o %d
TOC извлечённого CD
Трек | Старт | Длительность | Начальный сектор | Конечный сектор
---------------------------------------------------------------------
1 | 0:00.00 | 6:08.66 | 0 | 27665
2 | 6:08.66 | 5:07.74 | 27666 | 50764
3 | 11:16.65 | 5:11.74 | 50765 | 74163
4 | 16:28.64 | 5:06.56 | 74164 | 97169
5 | 21:35.45 | 5:39.28 | 97170 | 122622
6 | 27:14.73 | 4:40.37 | 122623 | 143659
7 | 31:55.35 | 4:43.63 | 143660 | 164947
8 | 36:39.23 | 5:02.20 | 164948 | 187617
9 | 41:41.43 | 4:39.05 | 187618 | 208547
10 | 46:20.48 | 5:26.55 | 208548 | 233052
11 | 51:47.28 | 5:29.56 | 233053 | 257783
12 | 57:17.09 | 12:17.33 | 257784 | 313091
Характеристики диапазона извлечения и сообщения об ошибках
Выбранный диапазон
Имя файла C:\Funker Vogt - Survivor.wav
Пиковый уровень 79.2 %
Качество диапазона 100.0 %
CRC теста 2D82258B
CRC копии 2D82258B
Копирование... OK
Ошибок не произошло
Конец отчёта
AUDIOCHECKER v2.0 beta (build 457) - by Dester - opdester@freemail.hu
~~~~~~~~~~~~~~~~~~~~~~~~~~~~~~~~~~
-=== НЕ РЕДАКТИРУЙТЕ ЭТОТ ФАЙЛ! ===-
Путь: ...\2002 - Survivor
1 -=- Funker Vogt - Survivor.flac -=- CDDA (100%)
10370580
#777
продолжительность
: 00:27:22

1 Red Queen (Remixed By The Mad Hatter) (5:19)
2 Red Queen (Remixed By The Cheshire Cat) (4:03)
3 Chessmen's Square (5:35)
4 Red Queen (Remixed By Humpty Dumpty) (7:30)
5 Red Queen (Remixed By The White Rabbit) (4:55)
EAC extraction logfile from 12. June 2006, 13:14 for CD
Funker Vogt / Red Queen
Used drive : PIONEER DVD-RW DVR-110D Adapter: 1 ID: 1
Read mode : Secure with NO C2, accurate stream, disable cache
Read offset correction : 48
Overread into Lead-In and Lead-Out : Yes
Used output format : Internal WAV Routines
44.100 Hz; 16 Bit; Stereo
Other options :
Fill up missing offset samples with silence : Yes
Delete leading and trailing silent blocks : No
Installed external ASPI interface
Range status and errors
Selected range
Filename H:\Funker Vogt - Red Queen CD5\CDImage.wav
Peak level 100.0 %
Range quality 100.0 %
CRC AC836921
Copy OK
No errors occured
End of status report
AUDIOCHECKER v2.0 beta (build 457) - by Dester - opdester@freemail.hu
~~~~~~~~~~~~~~~~~~~~~~~~~~~~~~~~~~
-=== НЕ РЕДАКТИРУЙТЕ ЭТОТ ФАЙЛ! ===-
Путь: ...\Funker Vogt 2003 Red Queen [CD5]
1 -=- Funker Vogt - Red Queen.ape -=- CDDA (76%)
76838308
#777
продолжительность
: 1:11:50

1 Final Thrill (Remix By Christian Michael Of Flatline) (5:35)
2 History (Timeless Decay Mix By Icon Of Coil) (6:24)
3 Lügner (Aghast View-Remix) (5:55)
4 Prisoners Of War (Dance Or Die-Remix) (5:39)
5 Faster Life (XPQ 21-Remix) (5:34)
6 Obscure Pictures (Welcome Acid Kids Mix By Noisex) (3:57)
7 Compulsions (Re|worked) (5:58)
8 Stolen Thoughts (Given Memories Mix By Haujobb) (4:54)
9 This World (NVK-Remix By Vernon B.) (5:29)
10 Red Queen (T.O.Y.-Remix) (4:24)
11 Date Of Expiration (Unit's Bad Eggs Mix By Unit 187) (7:20)
12 Lügner (Rearranged) (5:42)
13 Lügner (Erzähl' Mir Doch Mix) (4:44)
Exact Audio Copy V0.99 prebeta 4 from 23. January 2008
Отчёт EAC об извлечении, выполненном 4. августа 2008, 22:49
Funker Vogt / Revivor
Дисковод: Optiarc DVD RW AD-5200A Adapter: 0 ID: 1
Режим чтения : Достоверность
Использование точного потока : Да
Отключение кэша аудио : Да
Использование указателей C2 : Нет
Коррекция смещения при чтении : 48
Способность читать области Lead-in и Lead-out : Нет
Заполнение пропущенных сэмплов тишиной : Да
Удаление блоков с тишиной в начале и конце : Нет
При вычислениях CRC использовались нулевые сэмплы : Да
Интерфейс : Встроенный Win32-интерфейс для Win NT/2000
Выходной формат : Пользовательский кодировщик
Выбранный битрейт : 1024 kBit/s
Качество : Высокий
Добавление ID3-тэга : Нет
Утилита сжатия : C:\Program Files\Exact Audio Copy\FLAC\FLAC.EXE
Дополнительные параметры : -8 -V -T "ARTIST=%a" -T "TITLE=%t" -T "ALBUM=%g" -T "DATE=%y" -T "TRACKNUMBER=%n" -T "GENRE=%m" -T "COMMENT=%e" %s -o %d
TOC извлечённого CD
Трек | Старт | Длительность | Начальный сектор | Конечный сектор
---------------------------------------------------------------------
1 | 0:00.00 | 5:34.65 | 0 | 25114
2 | 5:34.65 | 6:27.27 | 25115 | 54166
3 | 12:02.17 | 5:54.16 | 54167 | 80732
4 | 17:56.33 | 5:41.20 | 80733 | 106327
5 | 23:37.53 | 5:35.32 | 106328 | 131484
6 | 29:13.10 | 3:57.62 | 131485 | 149321
7 | 33:10.72 | 6:00.28 | 149322 | 176349
8 | 39:11.25 | 4:57.00 | 176350 | 198624
9 | 44:08.25 | 5:28.55 | 198625 | 223279
10 | 49:37.05 | 4:26.46 | 223280 | 243275
11 | 54:03.51 | 7:21.41 | 243276 | 276391
12 | 61:25.17 | 5:41.67 | 276392 | 302033
13 | 67:07.09 | 4:43.14 | 302034 | 323272
14 | 74:22.23 | 2:07.42 | 334673 | 344239
Характеристики диапазона извлечения и сообщения об ошибках
Выбранный диапазон
Имя файла C:\Funker Vogt - Revivor.wav
Пиковый уровень 100.0 %
Качество диапазона 100.0 %
CRC теста FF2B0F6E
CRC копии FF2B0F6E
Копирование... OK
Ошибок не произошло
Конец отчёта
AUDIOCHECKER v2.0 beta (build 457) - by Dester - opdester@freemail.hu
~~~~~~~~~~~~~~~~~~~~~~~~~~~~~~~~~~
-=== НЕ РЕДАКТИРУЙТЕ ЭТОТ ФАЙЛ! ===-
Путь: ...\2003 - Revivor
1 -=- Funker Vogt - Revivor.flac -=- CDDA (100%)
176324868
#777CD1

продолжительность
: 1:09:17
Words of Power (EPCD)
01 Words of Power (Highspeed Mix) (4:42)
02 The 3rd War (Original Mix) (5:17)
03 Thanks For Nothing (Original Mix) (6:06)
04 Words Of Power (Power Mix) (4:17)
05 The 3rd War (Atomic Shell) (4:05)
06 Thanks For Nothing (Controlled Fusion Remix) (6:57)

Take Care (MCD)
07 Thanks For Nothing (In Strict Confidence Remix) (5:06)
08 Take Care (Original Mix) (5:07)
09 Take Care (G2 F135 Mix) (5:16)
10 Take Care (Booster +18 Mix) (4:43)
11 Take Care (Nightmare Mix) (6:11)
12 Fantasies (Burning In Hell) (2:08)

Unreleased Tracks
13 Ein Neuer Tag (3:50)
14 Words Of Power (Vol.1) (4:56)
Exact Audio Copy V0.99 prebeta 4 from 23. January 2008
Отчёт EAC об извлечении, выполненном 4. августа 2008, 4:47
Funker Vogt / Always And Forever Vol. 1 (CD1)
Дисковод: Optiarc DVD RW AD-5200A Adapter: 0 ID: 1
Режим чтения : Достоверность
Использование точного потока : Да
Отключение кэша аудио : Да
Использование указателей C2 : Нет
Коррекция смещения при чтении : 48
Способность читать области Lead-in и Lead-out : Нет
Заполнение пропущенных сэмплов тишиной : Да
Удаление блоков с тишиной в начале и конце : Нет
При вычислениях CRC использовались нулевые сэмплы : Да
Интерфейс : Встроенный Win32-интерфейс для Win NT/2000
Выходной формат : Пользовательский кодировщик
Выбранный битрейт : 1024 kBit/s
Качество : Высокий
Добавление ID3-тэга : Нет
Утилита сжатия : C:\Program Files\Exact Audio Copy\FLAC\FLAC.EXE
Дополнительные параметры : -8 -V -T "ARTIST=%a" -T "TITLE=%t" -T "ALBUM=%g" -T "DATE=%y" -T "TRACKNUMBER=%n" -T "GENRE=%m" -T "COMMENT=%e" %s -o %d
TOC извлечённого CD
Трек | Старт | Длительность | Начальный сектор | Конечный сектор
---------------------------------------------------------------------
1 | 0:00.00 | 4:44.65 | 0 | 21364
2 | 4:44.65 | 5:19.01 | 21365 | 45290
3 | 10:03.66 | 6:08.17 | 45291 | 72907
4 | 16:12.08 | 4:19.41 | 72908 | 92373
5 | 20:31.49 | 4:07.58 | 92374 | 110956
6 | 24:39.32 | 6:59.42 | 110957 | 142423
7 | 31:38.74 | 5:10.23 | 142424 | 165696
8 | 36:49.22 | 5:09.45 | 165697 | 188916
9 | 41:58.67 | 5:18.24 | 188917 | 212790
10 | 47:17.16 | 4:45.71 | 212791 | 234236
11 | 52:03.12 | 6:13.14 | 234237 | 262225
12 | 58:16.26 | 2:12.00 | 262226 | 272125
13 | 60:28.26 | 3:52.15 | 272126 | 289540
14 | 64:20.41 | 4:56.53 | 289541 | 311793
Характеристики диапазона извлечения и сообщения об ошибках
Выбранный диапазон
Имя файла C:\Funker Vogt - Always And Forever Vol. 1 (CD1).wav
Пиковый уровень 100.0 %
Качество диапазона 100.0 %
CRC теста 24D35EB4
CRC копии 24D35EB4
Копирование... OK
Ошибок не произошло
Конец отчёта
AUDIOCHECKER v2.0 beta (build 457) - by Dester - opdester@freemail.hu
~~~~~~~~~~~~~~~~~~~~~~~~~~~~~~~~~~
-=== НЕ РЕДАКТИРУЙТЕ ЭТОТ ФАЙЛ! ===-
Путь: ...\2004 - Always And Forever Vol. 1 (CD1)
1 -=- Funker Vogt - Always And Forever Vol. 1 (CD1).flac -=- CDDA (100%)
60568036
CD2

продолжительность
: 1:13:37
Killing Time Again (EPCD)
01 Killing Fields (Killed Mix) (8:22)
02 Evil's Birth (5:30)
03 Vision (5:13)
04 The Race Is On (4:46)
05 Killing Fields (Guitar Fixer Mix II) (4:56)
06 Evil's Birth (Mezzo Mix) (4:37)
07 Black Hole (Live) (4:17)

Unreleased Tracks
08 Schöne Schmerzen (3:41)
09 You Can Win If You Want (6:59)
10 Am Tag Als Conny Kramer Starb (3:28)
11 Children's Eyes (4:26)
12 King For A Night (Vol. 1) (4:31)
13 Thanks For Nothing (Vocoded) (5:17)
14 Under Control (Back To The Roots Mix) (7:00)
Exact Audio Copy V0.99 prebeta 4 from 23. January 2008
Отчёт EAC об извлечении, выполненном 4. августа 2008, 6:04
Funker Vogt / Always and Forever Vol. 1 (CD2)
Дисковод: Optiarc DVD RW AD-5200A Adapter: 0 ID: 1
Режим чтения : Достоверность
Использование точного потока : Да
Отключение кэша аудио : Да
Использование указателей C2 : Нет
Коррекция смещения при чтении : 48
Способность читать области Lead-in и Lead-out : Нет
Заполнение пропущенных сэмплов тишиной : Да
Удаление блоков с тишиной в начале и конце : Нет
При вычислениях CRC использовались нулевые сэмплы : Да
Интерфейс : Встроенный Win32-интерфейс для Win NT/2000
Выходной формат : Пользовательский кодировщик
Выбранный битрейт : 1024 kBit/s
Качество : Высокий
Добавление ID3-тэга : Нет
Утилита сжатия : C:\Program Files\Exact Audio Copy\FLAC\FLAC.EXE
Дополнительные параметры : -8 -V -T "ARTIST=%a" -T "TITLE=%t" -T "ALBUM=%g" -T "DATE=%y" -T "TRACKNUMBER=%n" -T "GENRE=%m" -T "COMMENT=%e" %s -o %d
TOC извлечённого CD
Трек | Старт | Длительность | Начальный сектор | Конечный сектор
---------------------------------------------------------------------
1 | 0:00.00 | 8:24.67 | 0 | 37866
2 | 8:24.67 | 5:32.27 | 37867 | 62793
3 | 13:57.19 | 5:15.39 | 62794 | 86457
4 | 19:12.58 | 4:48.38 | 86458 | 108095
5 | 24:01.21 | 4:58.12 | 108096 | 130457
6 | 28:59.33 | 4:39.49 | 130458 | 151431
7 | 33:39.07 | 4:21.74 | 151432 | 171080
8 | 38:01.06 | 3:43.00 | 171081 | 187805
9 | 41:44.06 | 7:01.27 | 187806 | 219407
10 | 48:45.33 | 3:30.48 | 219408 | 235205
11 | 52:16.06 | 4:28.35 | 235206 | 255340
12 | 56:44.41 | 4:33.17 | 255341 | 275832
13 | 61:17.58 | 5:19.67 | 275833 | 299824
14 | 66:37.50 | 7:00.14 | 299825 | 331338
Характеристики диапазона извлечения и сообщения об ошибках
Выбранный диапазон
Имя файла C:\Funker Vogt - Always and Forever Vol. 1 (CD2).wav
Пиковый уровень 100.0 %
Качество диапазона 100.0 %
CRC теста B41F457A
CRC копии B41F457A
Копирование... OK
Ошибок не произошло
Конец отчёта
AUDIOCHECKER v2.0 beta (build 457) - by Dester - opdester@freemail.hu
~~~~~~~~~~~~~~~~~~~~~~~~~~~~~~~~~~
-=== НЕ РЕДАКТИРУЙТЕ ЭТОТ ФАЙЛ! ===-
Путь: ...\2004 - Always and Forever Vol. 1 (CD2)
1 -=- Funker Vogt - Always and Forever Vol. 1 (CD2).flac -=- CDDA (100%)
63001060
#777
продолжительность
: 1:03:38

1 Killing Ground (5:36)
2 Fallen Hero (5:01)
3 No Tomorrow (4:29)
4 Friendly Fire (5:17)
5 Navigator (4:56)
6 House Of Sorrows (5:31)
7 Thoughts Of A Soldier (5:07)
8 Stronghold (4:23)
9 Starfighters (4:47)
10 Reject (4:40)
11 The End (5:17)
12 Für Dich (4:39)
13 Vorwärts! (3:50)
Exact Audio Copy V0.99 prebeta 4 from 23. January 2008
Отчёт EAC об извлечении, выполненном 4. августа 2008, 19:39
Funker Vogt / Navigator
Дисковод: Optiarc DVD RW AD-5200A Adapter: 0 ID: 1
Режим чтения : Достоверность
Использование точного потока : Да
Отключение кэша аудио : Да
Использование указателей C2 : Нет
Коррекция смещения при чтении : 48
Способность читать области Lead-in и Lead-out : Нет
Заполнение пропущенных сэмплов тишиной : Да
Удаление блоков с тишиной в начале и конце : Нет
При вычислениях CRC использовались нулевые сэмплы : Да
Интерфейс : Встроенный Win32-интерфейс для Win NT/2000
Выходной формат : Пользовательский кодировщик
Выбранный битрейт : 1024 kBit/s
Качество : Высокий
Добавление ID3-тэга : Нет
Утилита сжатия : C:\Program Files\Exact Audio Copy\FLAC\FLAC.EXE
Дополнительные параметры : -8 -V -T "ARTIST=%a" -T "TITLE=%t" -T "ALBUM=%g" -T "DATE=%y" -T "TRACKNUMBER=%n" -T "GENRE=%m" -T "COMMENT=%e" %s -o %d
TOC извлечённого CD
Трек | Старт | Длительность | Начальный сектор | Конечный сектор
---------------------------------------------------------------------
1 | 0:00.00 | 5:35.49 | 0 | 25173
2 | 5:35.49 | 4:59.06 | 25174 | 47604
3 | 10:34.55 | 4:29.44 | 47605 | 67823
4 | 15:04.24 | 5:17.44 | 67824 | 91642
5 | 20:21.68 | 4:56.42 | 91643 | 113884
6 | 25:18.35 | 5:31.67 | 113885 | 138776
7 | 30:50.27 | 5:07.28 | 138777 | 161829
8 | 35:57.55 | 4:23.14 | 161830 | 181568
9 | 40:20.69 | 4:47.56 | 181569 | 203149
10 | 45:08.50 | 4:41.25 | 203150 | 224249
11 | 49:50.00 | 5:17.67 | 224250 | 248091
12 | 55:07.67 | 4:40.18 | 248092 | 269109
13 | 59:48.10 | 3:50.16 | 269110 | 286375
Характеристики диапазона извлечения и сообщения об ошибках
Выбранный диапазон
Имя файла C:\Funker Vogt - Navigator.wav
Пиковый уровень 100.0 %
Качество диапазона 100.0 %
CRC теста 20E09C51
CRC копии 20E09C51
Копирование... OK
Ошибок не произошло
Конец отчёта
AUDIOCHECKER v2.0 beta (build 457) - by Dester - opdester@freemail.hu
~~~~~~~~~~~~~~~~~~~~~~~~~~~~~~~~~~
-=== НЕ РЕДАКТИРУЙТЕ ЭТОТ ФАЙЛ! ===-
Путь: ...\2005 - Navigator
1 -=- Funker Vogt - Navigator.flac -=- CDDA (100%)
130049972
#777CD1

продолжительность
: 1:13:14
Tragic Hero CDS
01 Tragic Hero (Haat Klapp Mix) (5:20)
02 Tragic Hero (Apoptygma Berzerk Remix) (7:32)
03 Tragic Hero (Blind Vision Remix) (4:15)
04 Spread Your Legs! (4:46)
05 Tragic Hero (Covenant Remix) (6:04)
06 The International Killer (Less Vox Remix) (5:58)
07 The Voice Of Death (Evil's Toy Remix) (3:48)
08 Spread Your Legs! (F... Mix) (3:36)

Unreleased And Rare Tracks
09 Pure War - Vol. 1 (1997) (5:30)
10 Drip Fed Fred (2000) (4:05)
11 Live Execution (1998) (2:48)
12 Under Deck - Vol. 1 (1999) (5:25)
13 The Journey - Vol. 1 (1999) (5:24)
14 Harvester Of Sorrow (2001) (4:23)
15 Paranoid (Live-Edit) (4:11)
Exact Audio Copy V0.99 prebeta 4 from 23. January 2008
Отчёт EAC об извлечении, выполненном 4. августа 2008, 6:47
Funker Vogt / Always and Forever Vol.2 (CD1)
Дисковод: Optiarc DVD RW AD-5200A Adapter: 0 ID: 1
Режим чтения : Достоверность
Использование точного потока : Да
Отключение кэша аудио : Да
Использование указателей C2 : Нет
Коррекция смещения при чтении : 48
Способность читать области Lead-in и Lead-out : Нет
Заполнение пропущенных сэмплов тишиной : Да
Удаление блоков с тишиной в начале и конце : Нет
При вычислениях CRC использовались нулевые сэмплы : Да
Интерфейс : Встроенный Win32-интерфейс для Win NT/2000
Выходной формат : Пользовательский кодировщик
Выбранный битрейт : 1024 kBit/s
Качество : Высокий
Добавление ID3-тэга : Нет
Утилита сжатия : C:\Program Files\Exact Audio Copy\FLAC\FLAC.EXE
Дополнительные параметры : -8 -V -T "ARTIST=%a" -T "TITLE=%t" -T "ALBUM=%g" -T "DATE=%y" -T "TRACKNUMBER=%n" -T "GENRE=%m" -T "COMMENT=%e" %s -o %d
TOC извлечённого CD
Трек | Старт | Длительность | Начальный сектор | Конечный сектор
---------------------------------------------------------------------
1 | 0:00.00 | 5:20.17 | 0 | 24016
2 | 5:20.17 | 7:32.68 | 24017 | 57984
3 | 12:53.10 | 4:15.51 | 57985 | 77160
4 | 17:08.61 | 4:46.10 | 77161 | 98620
5 | 21:54.71 | 6:04.61 | 98621 | 125981
6 | 27:59.57 | 5:58.64 | 125982 | 152895
7 | 33:58.46 | 3:48.71 | 152896 | 170066
8 | 37:47.42 | 3:36.20 | 170067 | 186286
9 | 41:23.62 | 5:30.35 | 186287 | 211071
10 | 46:54.22 | 4:05.66 | 211072 | 229512
11 | 51:00.13 | 2:48.34 | 229513 | 242146
12 | 53:48.47 | 5:25.21 | 242147 | 266542
13 | 59:13.68 | 5:24.40 | 266543 | 290882
14 | 64:38.33 | 4:23.51 | 290883 | 310658
15 | 69:02.09 | 4:11.71 | 310659 | 329554
Характеристики диапазона извлечения и сообщения об ошибках
Выбранный диапазон
Имя файла C:\Funker Vogt - Always and Forever Vol.2 (CD1).wav
Пиковый уровень 100.0 %
Качество диапазона 100.0 %
CRC теста 4ED0919D
CRC копии 4ED0919D
Копирование... OK
Ошибок не произошло
Конец отчёта
AUDIOCHECKER v2.0 beta (build 457) - by Dester - opdester@freemail.hu
~~~~~~~~~~~~~~~~~~~~~~~~~~~~~~~~~~
-=== НЕ РЕДАКТИРУЙТЕ ЭТОТ ФАЙЛ! ===-
Путь: ...\2006 - Always And Forever Vol. 2 (CD1)
1 -=- Funker Vogt - Always and Forever Vol.2 (CD1).flac -=- CDDA (100%)
65030756
CD2

продолжительность
: 1:15:22
Gunman CDS
01 Gunman (Classic) (4:21)
02 F-117 (4:56)
03 Gunman (Crossed) (4:22)
04 Gunman (Female) (6:32)
05 Nuclear Winter (Frost Bitten) (5:32)

Code 7477 CDEP
06 Funker Vogt (Completed) (4:22)
07 Funker Vogt 2nd Unit (Krolled) (5:32)
08 Black Hole (Re/Worked) (5:30)
09 Funker Vogt (March On!) (3:56)
10 Funker Vogt 2nd Unit (Transmitted) (5:08)
11 Black Hole (Blind) (5:58)
12 Taxi Zum Mars (5:09)

Unreleased Tracks
13 Maschine Zeit (V-Mix) (4:59)
14 No Rest For The Wicked (Soft Version) (4:10)
15 Fortunes Of War (AF2-Mix) (4:49)
Exact Audio Copy V0.99 prebeta 4 from 23. January 2008
Отчёт EAC об извлечении, выполненном 4. августа 2008, 8:16
Funker Vogt / Always and Forever Vol.2 (CD2)
Дисковод: Optiarc DVD RW AD-5200A Adapter: 0 ID: 1
Режим чтения : Достоверность
Использование точного потока : Да
Отключение кэша аудио : Да
Использование указателей C2 : Нет
Коррекция смещения при чтении : 48
Способность читать области Lead-in и Lead-out : Нет
Заполнение пропущенных сэмплов тишиной : Да
Удаление блоков с тишиной в начале и конце : Нет
При вычислениях CRC использовались нулевые сэмплы : Да
Интерфейс : Встроенный Win32-интерфейс для Win NT/2000
Выходной формат : Пользовательский кодировщик
Выбранный битрейт : 1024 kBit/s
Качество : Высокий
Добавление ID3-тэга : Нет
Утилита сжатия : C:\Program Files\Exact Audio Copy\FLAC\FLAC.EXE
Дополнительные параметры : -8 -V -T "ARTIST=%a" -T "TITLE=%t" -T "ALBUM=%g" -T "DATE=%y" -T "TRACKNUMBER=%n" -T "GENRE=%m" -T "COMMENT=%e" %s -o %d
TOC извлечённого CD
Трек | Старт | Длительность | Начальный сектор | Конечный сектор
---------------------------------------------------------------------
1 | 0:00.00 | 4:21.19 | 0 | 19593
2 | 4:21.19 | 4:56.16 | 19594 | 41809
3 | 9:17.35 | 4:22.42 | 41810 | 61501
4 | 13:40.02 | 6:32.12 | 61502 | 90913
5 | 20:12.14 | 5:32.00 | 90914 | 115813
6 | 25:44.14 | 4:22.56 | 115814 | 135519
7 | 30:06.70 | 5:32.02 | 135520 | 160421
8 | 35:38.72 | 5:30.51 | 160422 | 185222
9 | 41:09.48 | 3:56.72 | 185223 | 202994
10 | 45:06.45 | 5:08.16 | 202995 | 226110
11 | 50:14.61 | 5:58.26 | 226111 | 252986
12 | 56:13.12 | 5:09.67 | 252987 | 276228
13 | 61:23.04 | 4:59.69 | 276229 | 298722
14 | 66:22.73 | 4:10.48 | 298723 | 317520
15 | 70:33.46 | 4:49.13 | 317521 | 339208
Характеристики диапазона извлечения и сообщения об ошибках
Выбранный диапазон
Имя файла C:\Funker Vogt - Always and Forever Vol.2 (CD2).wav
Пиковый уровень 92.0 %
Качество диапазона 100.0 %
CRC теста A3838547
CRC копии A3838547
Копирование... OK
Ошибок не произошло
Конец отчёта
AUDIOCHECKER v2.0 beta (build 457) - by Dester - opdester@freemail.hu
~~~~~~~~~~~~~~~~~~~~~~~~~~~~~~~~~~
-=== НЕ РЕДАКТИРУЙТЕ ЭТОТ ФАЙЛ! ===-
Путь: ...\2006 - Always And Forever Vol. 2 (CD2)
1 -=- Funker Vogt - Always and Forever Vol.2 (CD2).flac -=- CDDA (100%)
64834148
#777
продолжительность
: 1:07:39

1 Welcome To Destruction (1:53)
2 Paralyzed (6:58)
3 Child Soldier (6:30)
4 City Of Darkness (5:28)
5 My Fortune (5:29)
6 Hostile Waters (6:10)
7 Thanatophobia (5:14)
8 Frozen In Time (4:52)
9 One (5:39)
10 Darwin's Nightmare (4:53)
11 Blind Rage (7:07)
12 Babylon (7:23)
Exact Audio Copy V0.99 prebeta 4 from 23. January 2008
Отчёт EAC об извлечении, выполненном 4. августа 2008, 3:27
Funker Vogt / Aviator
Дисковод: Optiarc DVD RW AD-5200A Adapter: 0 ID: 1
Режим чтения : Достоверность
Использование точного потока : Да
Отключение кэша аудио : Да
Использование указателей C2 : Нет
Коррекция смещения при чтении : 48
Способность читать области Lead-in и Lead-out : Нет
Заполнение пропущенных сэмплов тишиной : Да
Удаление блоков с тишиной в начале и конце : Нет
При вычислениях CRC использовались нулевые сэмплы : Да
Интерфейс : Встроенный Win32-интерфейс для Win NT/2000
Выходной формат : Пользовательский кодировщик
Выбранный битрейт : 1024 kBit/s
Качество : Высокий
Добавление ID3-тэга : Нет
Утилита сжатия : C:\Program Files\Exact Audio Copy\FLAC\FLAC.EXE
Дополнительные параметры : -8 -V -T "ARTIST=%a" -T "TITLE=%t" -T "ALBUM=%g" -T "DATE=%y" -T "TRACKNUMBER=%n" -T "GENRE=%m" -T "COMMENT=%e" %s -o %d
TOC извлечённого CD
Трек | Старт | Длительность | Начальный сектор | Конечный сектор
---------------------------------------------------------------------
1 | 0:00.00 | 1:53.26 | 0 | 8500
2 | 1:53.26 | 6:58.17 | 8501 | 39867
3 | 8:51.43 | 6:30.40 | 39868 | 69157
4 | 15:22.08 | 5:28.63 | 69158 | 93820
5 | 20:50.71 | 5:29.02 | 93821 | 118497
6 | 26:19.73 | 6:10.04 | 118498 | 146251
7 | 32:30.02 | 5:14.05 | 146252 | 169806
8 | 37:44.07 | 4:52.52 | 169807 | 191758
9 | 42:36.59 | 5:39.02 | 191759 | 217185
10 | 48:15.61 | 4:53.05 | 217186 | 239165
11 | 53:08.66 | 7:07.34 | 239166 | 271224
12 | 60:16.25 | 7:23.16 | 271225 | 304465
Характеристики диапазона извлечения и сообщения об ошибках
Выбранный диапазон
Имя файла C:\Funker Vogt - Aviator.wav
Пиковый уровень 100.0 %
Качество диапазона 100.0 %
CRC теста CD820FF7
CRC копии CD820FF7
Копирование... OK
Ошибок не произошло
Конец отчёта
AUDIOCHECKER v2.0 beta (build 457) - by Dester - opdester@freemail.hu
~~~~~~~~~~~~~~~~~~~~~~~~~~~~~~~~~~
-=== НЕ РЕДАКТИРУЙТЕ ЭТОТ ФАЙЛ! ===-
Путь: ...\2007 - Aviator
1 -=- Funker Vogt - Aviator.flac -=- CDDA (100%)
44311812
PROJECTS
#777Жанр: EBM , Electro, Industrial
Год выпуска диска: 2002 - 2005
Страна: Germany
Аудио кодек: FLAC
Тип рипа: image+.cue
Битрейт аудио: lossless
#777
продолжительность
: 00:45:41

1 Tempel Der Wahrheit (Aufgemischt) (4:01)
2 Der Schänder (Kinder–Mix) (5:01)
3 Griechischer Wein (Samos–Edit) (4:49)
4 Dein Blut (Asaganal) (4:34)
5 Tempel Der Wahrheit (Abgemischt) (4:38)
6 Gib Ihm (Einen Namen) (3:49)
7 K–Os (Chaos–Mix) (3:48)
8 Der Entenmann (Teichversion) (5:05)
9 Dein Blut (Uffuk Akbash) (6:11)
10 Ein Kleines Lied (Mucki–Extended) (2:44)
11 Der Ghost–Track (0:58)
Exact Audio Copy V0.99 prebeta 4 from 23. January 2008
Отчёт EAC об извлечении, выполненном 5. августа 2008, 5:11
Fusspils 11 / Gib Ihr Einen Namen
Дисковод: Optiarc DVD RW AD-5200A Adapter: 0 ID: 1
Режим чтения : Достоверность
Использование точного потока : Да
Отключение кэша аудио : Да
Использование указателей C2 : Нет
Коррекция смещения при чтении : 48
Способность читать области Lead-in и Lead-out : Нет
Заполнение пропущенных сэмплов тишиной : Да
Удаление блоков с тишиной в начале и конце : Нет
При вычислениях CRC использовались нулевые сэмплы : Да
Интерфейс : Встроенный Win32-интерфейс для Win NT/2000
Выходной формат : Пользовательский кодировщик
Выбранный битрейт : 1024 kBit/s
Качество : Высокий
Добавление ID3-тэга : Нет
Утилита сжатия : C:\Program Files\Exact Audio Copy\FLAC\FLAC.EXE
Дополнительные параметры : -8 -V -T "ARTIST=%a" -T "TITLE=%t" -T "ALBUM=%g" -T "DATE=%y" -T "TRACKNUMBER=%n" -T "GENRE=%m" -T "COMMENT=%e" %s -o %d
TOC извлечённого CD
Трек | Старт | Длительность | Начальный сектор | Конечный сектор
---------------------------------------------------------------------
1 | 0:00.00 | 4:01.16 | 0 | 18090
2 | 4:01.16 | 5:01.02 | 18091 | 40667
3 | 9:02.18 | 4:49.46 | 40668 | 62388
4 | 13:51.64 | 4:34.21 | 62389 | 82959
5 | 18:26.10 | 4:38.17 | 82960 | 103826
6 | 23:04.27 | 3:49.17 | 103827 | 121018
7 | 26:53.44 | 3:48.43 | 121019 | 138161
8 | 30:42.12 | 5:05.23 | 138162 | 161059
9 | 35:47.35 | 6:11.27 | 161060 | 188911
10 | 41:58.62 | 2:44.12 | 188912 | 201223
11 | 44:42.74 | 0:58.27 | 201224 | 205600
Характеристики диапазона извлечения и сообщения об ошибках
Выбранный диапазон
Имя файла C:\Fusspils 11 - Gib Ihr Einen Namen.wav
Пиковый уровень 99.9 %
Качество диапазона 100.0 %
CRC теста 056F0260
CRC копии 056F0260
Копирование... OK
Ошибок не произошло
Конец отчёта
AUDIOCHECKER v2.0 beta (build 457) - by Dester - opdester@freemail.hu
~~~~~~~~~~~~~~~~~~~~~~~~~~~~~~~~~~
-=== НЕ РЕДАКТИРУЙТЕ ЭТОТ ФАЙЛ! ===-
Путь: ...\1998 - Gib Ihr Einen Namen
1 -=- Fusspils 11 - Gib Ihr Einen Namen.flac -=- CDDA (100%)
231780196
#777
продолжительность
: 1:04:05

1 Feiert F11! (4:49)
2 Mein Kleiner Freund (4:41)
3 So Bist Du (4:33)
4 Kalte Herzen (5:41)
5 Seuchentod (4:45)
6 Bodo Ballermann (5:05)
7 Spielmacher (4:10)
8 Für Immer (3:50)
9 Wem (6:21)
10 Seelenlos (5:43)
11 Alles (4:50)
12 Wo Die Wilden Rosen Blühen (5:15)
13 Schenk Ein! (4:15)
Exact Audio Copy V0.99 prebeta 4 from 23. January 2008
Отчёт EAC об извлечении, выполненном 5. августа 2008, 4:33
Fusspils 11 / Alarm fur Fusspils 11
Дисковод: Optiarc DVD RW AD-5200A Adapter: 0 ID: 1
Режим чтения : Достоверность
Использование точного потока : Да
Отключение кэша аудио : Да
Использование указателей C2 : Нет
Коррекция смещения при чтении : 48
Способность читать области Lead-in и Lead-out : Нет
Заполнение пропущенных сэмплов тишиной : Да
Удаление блоков с тишиной в начале и конце : Нет
При вычислениях CRC использовались нулевые сэмплы : Да
Интерфейс : Встроенный Win32-интерфейс для Win NT/2000
Выходной формат : Пользовательский кодировщик
Выбранный битрейт : 1024 kBit/s
Качество : Высокий
Добавление ID3-тэга : Нет
Утилита сжатия : C:\Program Files\Exact Audio Copy\FLAC\FLAC.EXE
Дополнительные параметры : -8 -V -T "ARTIST=%a" -T "TITLE=%t" -T "ALBUM=%g" -T "DATE=%y" -T "TRACKNUMBER=%n" -T "GENRE=%m" -T "COMMENT=%e" %s -o %d
TOC извлечённого CD
Трек | Старт | Длительность | Начальный сектор | Конечный сектор
---------------------------------------------------------------------
1 | 0:00.00 | 4:49.53 | 0 | 21727
2 | 4:49.53 | 4:41.21 | 21728 | 42823
3 | 9:30.74 | 4:33.40 | 42824 | 63338
4 | 14:04.39 | 5:41.17 | 63339 | 88930
5 | 19:45.56 | 4:45.33 | 88931 | 110338
6 | 24:31.14 | 5:05.60 | 110339 | 133273
7 | 29:36.74 | 4:10.68 | 133274 | 152091
8 | 33:47.67 | 3:50.31 | 152092 | 169372
9 | 37:38.23 | 6:21.58 | 169373 | 198005
10 | 44:00.06 | 5:43.25 | 198006 | 223755
11 | 49:43.31 | 4:50.49 | 223756 | 245554
12 | 54:34.05 | 5:15.49 | 245555 | 269228
13 | 59:49.54 | 4:15.42 | 269229 | 288395
Характеристики диапазона извлечения и сообщения об ошибках
Выбранный диапазон
Имя файла C:\Fusspils 11 - Alarm fur Fusspils 11.wav
Пиковый уровень 99.9 %
Качество диапазона 99.9 %
CRC теста F9A373F7
CRC копии F9A373F7
Копирование... OK
Ошибок не произошло
Конец отчёта
AUDIOCHECKER v2.0 beta (build 457) - by Dester - opdester@freemail.hu
~~~~~~~~~~~~~~~~~~~~~~~~~~~~~~~~~~
-=== НЕ РЕДАКТИРУЙТЕ ЭТОТ ФАЙЛ! ===-
Путь: ...\2005 - Alarm fur Fusspils 11
1 -=- Fusspils 11 - Alarm fur Fusspils 11.flac -=- CDDA (99%)
255560100
#777Жанр: EBM , Electro, Industrial , Futurepop
Год выпуска диска: 2001 - 2003
Страна: Germany
Аудио кодек: FLAC
Тип рипа: image+.cue
Битрейт аудио: lossless
#777
продолжительность
: 00:55:07

01 The System (5:34)
02 Blue Lights (3:56)
03 Hangman (4:22)
04 Your Dream (5:44)
05 On Helloween (5:03)
06 Nightmare (4:23)
07 Dream of God (4:30)
08 Starlight (5:19)
09 Former Occupants (4:33)
10 Future (2:48)
11 Dream of God (live) (4:42)
12 Blue Lights (live) (4:08)
Exact Audio Copy V0.99 prebeta 4 from 23. January 2008
Отчёт EAC об извлечении, выполненном 5. августа 2008, 5:59
Fictional / Fictitious [+]
Дисковод: Optiarc DVD RW AD-5200A Adapter: 0 ID: 1
Режим чтения : Достоверность
Использование точного потока : Да
Отключение кэша аудио : Да
Использование указателей C2 : Нет
Коррекция смещения при чтении : 48
Способность читать области Lead-in и Lead-out : Нет
Заполнение пропущенных сэмплов тишиной : Да
Удаление блоков с тишиной в начале и конце : Нет
При вычислениях CRC использовались нулевые сэмплы : Да
Интерфейс : Встроенный Win32-интерфейс для Win NT/2000
Выходной формат : Пользовательский кодировщик
Выбранный битрейт : 1024 kBit/s
Качество : Высокий
Добавление ID3-тэга : Нет
Утилита сжатия : C:\Program Files\Exact Audio Copy\FLAC\FLAC.EXE
Дополнительные параметры : -8 -V -T "ARTIST=%a" -T "TITLE=%t" -T "ALBUM=%g" -T "DATE=%y" -T "TRACKNUMBER=%n" -T "GENRE=%m" -T "COMMENT=%e" %s -o %d
TOC извлечённого CD
Трек | Старт | Длительность | Начальный сектор | Конечный сектор
---------------------------------------------------------------------
1 | 0:00.00 | 5:34.14 | 0 | 25063
2 | 5:34.14 | 3:56.33 | 25064 | 42796
3 | 9:30.47 | 4:22.60 | 42797 | 62506
4 | 13:53.32 | 5:44.15 | 62507 | 88321
5 | 19:37.47 | 5:03.03 | 88322 | 111049
6 | 24:40.50 | 4:23.61 | 111050 | 130835
7 | 29:04.36 | 4:30.66 | 130836 | 151151
8 | 33:35.27 | 5:19.33 | 151152 | 175109
9 | 38:54.60 | 4:33.34 | 175110 | 195618
10 | 43:28.19 | 2:48.13 | 195619 | 208231
11 | 46:16.32 | 4:42.10 | 208232 | 229391
12 | 50:58.42 | 4:08.59 | 229392 | 248050
Характеристики диапазона извлечения и сообщения об ошибках
Выбранный диапазон
Имя файла C:\Fictional - Fictitious [+].wav
Пиковый уровень 100.0 %
Качество диапазона 99.9 %
CRC теста F05DB38F
CRC копии F05DB38F
Копирование... OK
Ошибок не произошло
Конец отчёта
AUDIOCHECKER v2.0 beta (build 457) - by Dester - opdester@freemail.hu
~~~~~~~~~~~~~~~~~~~~~~~~~~~~~~~~~~
-=== НЕ РЕДАКТИРУЙТЕ ЭТОТ ФАЙЛ! ===-
Путь: ...\2001 - Fictitious [+]
1 -=- Fictional - Fictitious [+].flac -=- CDDA (100%)
27995892
#777
продолжительность
: 1:18:28

1 The Sound Of The Falling Rain (5:28)
2 The Weatherman (4:34)
3 Dorian Gray (7:03)
4 Burning Man (5:40)
5 IntenCity (5:41)
6 Little Girl (3:49)
7 Hunting Machine (5:06)
8 Genuine Experience (4:19)
9 Private Nightmare (2:56)
10 Perfect Stranger (5:40)
11 Voyager (4:47)
12 Losing (5:25)
13 Mariner (3:01)
14 When The World Is Dying (9:50)
15 Angels (5:00)
Exact Audio Copy V0.99 prebeta 4 from 23. January 2008
Отчёт EAC об извлечении, выполненном 5. августа 2008, 6:39
Fictional / Fiction
Дисковод: Optiarc DVD RW AD-5200A Adapter: 0 ID: 1
Режим чтения : Достоверность
Использование точного потока : Да
Отключение кэша аудио : Да
Использование указателей C2 : Нет
Коррекция смещения при чтении : 48
Способность читать области Lead-in и Lead-out : Нет
Заполнение пропущенных сэмплов тишиной : Да
Удаление блоков с тишиной в начале и конце : Нет
При вычислениях CRC использовались нулевые сэмплы : Да
Интерфейс : Встроенный Win32-интерфейс для Win NT/2000
Выходной формат : Пользовательский кодировщик
Выбранный битрейт : 1024 kBit/s
Качество : Высокий
Добавление ID3-тэга : Нет
Утилита сжатия : C:\Program Files\Exact Audio Copy\FLAC\FLAC.EXE
Дополнительные параметры : -8 -V -T "ARTIST=%a" -T "TITLE=%t" -T "ALBUM=%g" -T "DATE=%y" -T "TRACKNUMBER=%n" -T "GENRE=%m" -T "COMMENT=%e" %s -o %d
TOC извлечённого CD
Трек | Старт | Длительность | Начальный сектор | Конечный сектор
---------------------------------------------------------------------
1 | 0:00.00 | 5:28.49 | 0 | 24648
2 | 5:28.49 | 4:34.59 | 24649 | 45257
3 | 10:03.33 | 7:03.38 | 45258 | 77020
4 | 17:06.71 | 5:40.48 | 77021 | 102568
5 | 22:47.44 | 5:41.49 | 102569 | 128192
6 | 28:29.18 | 3:49.62 | 128193 | 145429
7 | 32:19.05 | 5:06.73 | 145430 | 168452
8 | 37:26.03 | 4:19.20 | 168453 | 187897
9 | 41:45.23 | 2:56.30 | 187898 | 201127
10 | 44:41.53 | 5:40.30 | 201128 | 226657
11 | 50:22.08 | 4:47.50 | 226658 | 248232
12 | 55:09.58 | 5:25.58 | 248233 | 272665
13 | 60:35.41 | 3:01.04 | 272666 | 286244
14 | 63:36.45 | 9:50.72 | 286245 | 330566
15 | 73:27.42 | 5:00.66 | 330567 | 353132
Характеристики диапазона извлечения и сообщения об ошибках
Выбранный диапазон
Имя файла C:\Fictional - Fiction.wav
Пиковый уровень 99.9 %
Качество диапазона 100.0 %
CRC теста EDF312AF
CRC копии EDF312AF
Копирование... OK
Ошибок не произошло
Конец отчёта
AUDIOCHECKER v2.0 beta (build 457) - by Dester - opdester@freemail.hu
~~~~~~~~~~~~~~~~~~~~~~~~~~~~~~~~~~
-=== НЕ РЕДАКТИРУЙТЕ ЭТОТ ФАЙЛ! ===-
Путь: ...\2003 - Fiction
1 -=- Fictional - Fiction.flac -=- CDDA (100%)
98022916
Дополнительная информация :
Огромную помощь при создании этой дискографии оказали : maxmin , Erk_ , kuliba , Serg 80
ТОРРЕНТ ПЕРЕЗАЛИТ , ДОБАВЛЕНЫ :
2001 - Code 7477 (CDEP)
2001 - Subspace (CDM)

За эти два CDM говорим спасибо maxmin
Правила, инструкции, FAQ!!!
Торрент  Добавлен [26 июн 2020, 21:11] Скачать торрент Магнет ссылка
Скачать торрент
[ Размер 71.54 КБ / Просмотров 10 ]

Статус
Проверен 
 
Размер  9.35 ГБ
Приватный: Нет (DHT включён)
.torrent скачан  0
 


     Отправить личное сообщение
   
Страница 1 из 1
Показать сообщения за:  Поле сортировки  
Начать новую тему Ответить на тему


Сейчас этот форум просматривают: нет зарегистрированных пользователей и гости: 0


Вы не можете начинать темы
Вы не можете отвечать на сообщения
Вы не можете редактировать свои сообщения
Вы не можете удалять свои сообщения
Вы не можете добавлять вложения

Перейти:  
cron