Начать новую тему Ответить на тему
Статистика раздачи
Размер: 435.51 МБ | Добавлен: 26 июн 2020, 17:05 | Скачали: 0
Сидеров: 0  [0 байт/сек]    Личеров: 0  [0 байт/сек]
Пред. тема | След. тема 

Автор
Сообщение

СообщениеДобавлено: 26 июн 2020, 17:05 

Ответить с цитатой 

Fractured - Only Human Remains (2005)

Жанр: EBM, Electro, Industrial
Год выпуска: 2005
Страна: Germany
Аудио кодек: FLAC
Тип рипа: image+.cue
Битрейт аудио: lossless
Продолжительность: 00:57:22
Трэклист:
1 What Is The Moment Of Truth (4:52)
2 Only Human Remains (5:44)
3 Everytime (4:13)
4 Becoming One (6:10)
5 Bleed (5:07)
6 Between The Lines (4:50)
7 Haunted Memories (5:18)
8 Stratified Society (4:40)
9 One More Time (6:13)
10 Try To Forget (5:35)
11 Cold Eyes (4:40)

Доп. информация: HQ Scans внутри
Exact Audio Copy V0.99 prebeta 4 from 23. January 2008
Отчёт EAC об извлечении, выполненном 2. августа 2008, 15:35
Fractured / Only Human Remains
Дисковод: Optiarc DVD RW AD-5200A Adapter: 0 ID: 1
Режим чтения : Достоверность
Использование точного потока : Да
Отключение кэша аудио : Да
Использование указателей C2 : Нет
Коррекция смещения при чтении : 48
Способность читать области Lead-in и Lead-out : Нет
Заполнение пропущенных сэмплов тишиной : Да
Удаление блоков с тишиной в начале и конце : Нет
При вычислениях CRC использовались нулевые сэмплы : Да
Интерфейс : Встроенный Win32-интерфейс для Win NT/2000
Выходной формат : Пользовательский кодировщик
Выбранный битрейт : 1024 kBit/s
Качество : Высокий
Добавление ID3-тэга : Нет
Утилита сжатия : C:\Program Files\Exact Audio Copy\FLAC\FLAC.EXE
Дополнительные параметры : -8 -V -T "ARTIST=%a" -T "TITLE=%t" -T "ALBUM=%g" -T "DATE=%y" -T "TRACKNUMBER=%n" -T "GENRE=%m" -T "COMMENT=%e" %s -o %d
TOC извлечённого CD
Трек | Старт | Длительность | Начальный сектор | Конечный сектор
---------------------------------------------------------------------
1 | 0:00.00 | 4:51.44 | 0 | 21868
2 | 4:51.44 | 5:44.01 | 21869 | 47669
3 | 10:35.45 | 4:13.26 | 47670 | 66670
4 | 14:48.71 | 6:09.50 | 66671 | 94395
5 | 20:58.46 | 5:07.04 | 94396 | 117424
6 | 26:05.50 | 4:49.61 | 117425 | 139160
7 | 30:55.36 | 5:17.68 | 139161 | 163003
8 | 36:13.29 | 4:40.30 | 163004 | 184033
9 | 40:53.59 | 6:13.15 | 184034 | 212023
10 | 47:06.74 | 5:35.28 | 212024 | 237176
11 | 52:42.27 | 4:40.08 | 237177 | 258184
Характеристики диапазона извлечения и сообщения об ошибках
Выбранный диапазон
Имя файла C:\Documents and Settings\Sitos\Рабочий стол\Fractured - Only Human Remains.wav
Пиковый уровень 100.0 %
Качество диапазона 100.0 %
CRC теста B4CF2780
CRC копии B4CF2780
Копирование... OK
Ошибок не произошло
Конец отчёта
AUDIOCHECKER v2.0 beta (build 457) - by Dester - opdester@freemail.hu
~~~~~~~~~~~~~~~~~~~~~~~~~~~~~~~~~~
-=== НЕ РЕДАКТИРУЙТЕ ЭТОТ ФАЙЛ! ===-
Путь: ...\(020) Fractured - Only Human Remains (2005)
1 -=- Fractured - Only Human Remains.flac -=- CDDA (100%)
110545732
Правила, инструкции, FAQ!!!
Торрент  Добавлен [26 июн 2020, 17:05] Скачать торрент Магнет ссылка
Скачать торрент
[ Размер 17.99 КБ / Просмотров 3 ]

Статус
Проверен 
 
Размер  435.51 МБ
Приватный: Нет (DHT включён)
.torrent скачан  0
 


     Отправить личное сообщение
   
Страница 1 из 1
Показать сообщения за:  Поле сортировки  
Начать новую тему Ответить на тему


Сейчас этот форум просматривают: нет зарегистрированных пользователей и гости: 0


Вы не можете начинать темы
Вы не можете отвечать на сообщения
Вы не можете редактировать свои сообщения
Вы не можете удалять свои сообщения
Вы не можете добавлять вложения

Перейти:  
cron