Начать новую тему Ответить на тему
Статистика раздачи
Размер: 6.03 ГБ | Добавлен: 26 июн 2020, 20:27 | Скачали: 0
Сидеров: 0  [0 байт/сек]    Личеров: 0  [0 байт/сек]
Пред. тема | След. тема 

Автор
Сообщение

СообщениеДобавлено: 26 июн 2020, 20:27 

Ответить с цитатой 

VA - Electrostorm - Vol. 1 - 8 (8CD)



Жанр: EBM, Industrial, Electro, Synth-pop
Носитель: CD
Страна-производитель диска: Germany / EU
Страна: Germany
Год издания: 2009 - 2017
Издатель (лейбл): Out Of Line
Серия: Electrostorm
FLAC (*.flac)
Тип рипа: tracks+.cue
Битрейт аудио: lossless
Продолжительность: 8 ~ 10:08:43
Жанр: EBM, Industrial, Electro
Страна-производитель диска: Germany
Год выпуска диска: 2009
Дата выхода оригинального издания: 2009
Тип издания: CD, Compilation
Издатель (лейбл): Out Of Line
Номер по каталогу: OUT 353
Продолжительность: 01:17:36
Источник (релизер): Собственный рип
Наличие сканов в содержимом раздачи: да, PNG 600dpiТреклист
01. Aesthetic Perfection - The Ones [05:34]
02. Kirlian Camera - Edges (Mission Walhalla V) [03:24]
03. Agonoize - Staatsfeind [04:30]
04. Blutengel - Waiting For The Night [05:43]
05. Die Form - Slavesex (XXX Version) [04:01]
06. Din [A] Tod - Glory In The Highest [03:45]
07. Auto-Auto - Where The Buffalo Roam [03:23]
08. Elegant Machinery - Bleeding Words [03:31]
09. Ashbury Heights - Smile [03:42]
10. Client - Can You Feel (Kindle Remix) [04:34]
11. Combichrist - Scarred [04:27]
12. Hocico - Fed Up [04:40]
13. The Cyberchrist Project - A Piece Of Me (Club Version) [04:25]
14. Kriminal Minds - Back To What You Are (Military No Fashion Mix) [04:50]
15. Amduscia - Perverse Party [05:05]
16. Container 90 - Clean [04:22]
17. Turnbull A.C.'S - Man Made Modern Machines [03:08]
18. And One - Paddy Is My DJ [04:33]
Код:
Exact Audio Copy V1.3 from 2. September 2016
EAC extraction logfile from 25. November 2017, 21:14
Various Artists / Electrostorm Volume 1 (OUT 353)
Used drive  : ASUS    BW-16D1HT   Adapter: 1  ID: 0
Read mode               : Secure
Utilize accurate stream : Yes
Defeat audio cache      : Yes
Make use of C2 pointers : No
Read offset correction                      : 6
Overread into Lead-In and Lead-Out          : No
Fill up missing offset samples with silence : Yes
Delete leading and trailing silent blocks   : No
Null samples used in CRC calculations       : Yes
Used interface                              : Native Win32 interface for Win NT & 2000
Gap handling                                : Appended to previous track
Used output format              : User Defined Encoder
Selected bitrate                : 1024 kBit/s
Quality                         : High
Add ID3 tag                     : No
Command line compressor         : C:\Program Files (x86)\Exact Audio Copy\FLAC\FLAC.EXE
Additional command line options : -T "COMMENT=Ripped by SergeyJD for rutracker.org" -8 -V -T "ARTIST=%artist%" -T "TITLE=%title%" -T "ALBUM=%albumtitle%" -T "DATE=%year%" -T "TRACKNUMBER=%tracknr%" -T "GENRE=%genre%" %source%
TOC of the extracted CD
     Track |   Start  |  Length  | Start sector | End sector
    ---------------------------------------------------------
        1  |  0:00.00 |  5:33.52 |         0    |    25026
        2  |  5:33.52 |  3:23.67 |     25027    |    40318
        3  |  8:57.44 |  4:30.06 |     40319    |    60574
        4  | 13:27.50 |  5:43.32 |     60575    |    86331
        5  | 19:11.07 |  4:00.66 |     86332    |   104397
        6  | 23:11.73 |  3:44.48 |    104398    |   121245
        7  | 26:56.46 |  3:22.41 |    121246    |   136436
        8  | 30:19.12 |  3:30.59 |    136437    |   152245
        9  | 33:49.71 |  3:41.63 |    152246    |   168883
       10  | 37:31.59 |  4:33.70 |    168884    |   189428
       11  | 42:05.54 |  4:26.56 |    189429    |   209434
       12  | 46:32.35 |  4:40.30 |    209435    |   230464
       13  | 51:12.65 |  4:25.15 |    230465    |   250354
       14  | 55:38.05 |  4:50.37 |    250355    |   272141
       15  | 60:28.42 |  5:04.39 |    272142    |   294980
       16  | 65:33.06 |  4:22.22 |    294981    |   314652
       17  | 69:55.28 |  3:07.65 |    314653    |   328742
       18  | 73:03.18 |  4:33.31 |    328743    |   349248
Track  1
     Filename D:\РАЗДАЧИ!!!!\VA - Electrostorm Vol. 1 - 8 (8CD) - 2009 - 2017\Various - Electrostorm Volume 1 (OUT 353) - 2009\01 The Ones.wav
     Pre-gap length  0:00:02.00
     Peak level 87.4 %
     Extraction speed 5.1 X
     Track quality 100.0 %
     Test CRC DF306E85
     Copy CRC DF306E85
     Accurately ripped (confidence 7)  [1E8635F6]  (AR v2)
     Copy OK
Track  2
     Filename D:\РАЗДАЧИ!!!!\VA - Electrostorm Vol. 1 - 8 (8CD) - 2009 - 2017\Various - Electrostorm Volume 1 (OUT 353) - 2009\02 Edges (Mission Walhalla V).wav
     Peak level 99.4 %
     Extraction speed 5.4 X
     Track quality 100.0 %
     Test CRC CE712796
     Copy CRC CE712796
     Accurately ripped (confidence 7)  [525935FE]  (AR v2)
     Copy OK
Track  3
     Filename D:\РАЗДАЧИ!!!!\VA - Electrostorm Vol. 1 - 8 (8CD) - 2009 - 2017\Various - Electrostorm Volume 1 (OUT 353) - 2009\03 Staatsfeind.wav
     Peak level 98.1 %
     Extraction speed 6.0 X
     Track quality 100.0 %
     Test CRC 239453AF
     Copy CRC 239453AF
     Accurately ripped (confidence 7)  [957E2ADF]  (AR v2)
     Copy OK
Track  4
     Filename D:\РАЗДАЧИ!!!!\VA - Electrostorm Vol. 1 - 8 (8CD) - 2009 - 2017\Various - Electrostorm Volume 1 (OUT 353) - 2009\04 Waiting For The Night.wav
     Peak level 98.3 %
     Extraction speed 6.6 X
     Track quality 100.0 %
     Test CRC E96E6CE9
     Copy CRC E96E6CE9
     Accurately ripped (confidence 7)  [C09A0BEA]  (AR v2)
     Copy OK
Track  5
     Filename D:\РАЗДАЧИ!!!!\VA - Electrostorm Vol. 1 - 8 (8CD) - 2009 - 2017\Various - Electrostorm Volume 1 (OUT 353) - 2009\05 Slavesex (XXX version).wav
     Peak level 88.1 %
     Extraction speed 6.7 X
     Track quality 100.0 %
     Test CRC 6AC56566
     Copy CRC 6AC56566
     Accurately ripped (confidence 7)  [53512EDE]  (AR v2)
     Copy OK
Track  6
     Filename D:\РАЗДАЧИ!!!!\VA - Electrostorm Vol. 1 - 8 (8CD) - 2009 - 2017\Various - Electrostorm Volume 1 (OUT 353) - 2009\06 Glory In The Highest.wav
     Peak level 99.5 %
     Extraction speed 7.0 X
     Track quality 100.0 %
     Test CRC A6B11AA9
     Copy CRC A6B11AA9
     Accurately ripped (confidence 7)  [0DBC575B]  (AR v2)
     Copy OK
Track  7
     Filename D:\РАЗДАЧИ!!!!\VA - Electrostorm Vol. 1 - 8 (8CD) - 2009 - 2017\Various - Electrostorm Volume 1 (OUT 353) - 2009\07 Where The Buffalo Roam.wav
     Peak level 90.6 %
     Extraction speed 7.1 X
     Track quality 100.0 %
     Test CRC D17EFA5F
     Copy CRC D17EFA5F
     Accurately ripped (confidence 7)  [8CEF5271]  (AR v2)
     Copy OK
Track  8
     Filename D:\РАЗДАЧИ!!!!\VA - Electrostorm Vol. 1 - 8 (8CD) - 2009 - 2017\Various - Electrostorm Volume 1 (OUT 353) - 2009\08 Bleeding Words.wav
     Peak level 98.4 %
     Extraction speed 6.0 X
     Track quality 99.9 %
     Test CRC 1E44DD3E
     Copy CRC 1E44DD3E
     Accurately ripped (confidence 7)  [DD5122A2]  (AR v2)
     Copy OK
Track  9
     Filename D:\РАЗДАЧИ!!!!\VA - Electrostorm Vol. 1 - 8 (8CD) - 2009 - 2017\Various - Electrostorm Volume 1 (OUT 353) - 2009\09 Smile.wav
     Peak level 99.1 %
     Extraction speed 7.7 X
     Track quality 100.0 %
     Test CRC D4857B48
     Copy CRC D4857B48
     Accurately ripped (confidence 7)  [43A3BB30]  (AR v2)
     Copy OK
Track 10
     Filename D:\РАЗДАЧИ!!!!\VA - Electrostorm Vol. 1 - 8 (8CD) - 2009 - 2017\Various - Electrostorm Volume 1 (OUT 353) - 2009\10 Can You Feel (Kindle Remix).wav
     Peak level 93.9 %
     Extraction speed 8.2 X
     Track quality 100.0 %
     Test CRC 1BD6037E
     Copy CRC 1BD6037E
     Accurately ripped (confidence 7)  [C6463CA2]  (AR v2)
     Copy OK
Track 11
     Filename D:\РАЗДАЧИ!!!!\VA - Electrostorm Vol. 1 - 8 (8CD) - 2009 - 2017\Various - Electrostorm Volume 1 (OUT 353) - 2009\11 Scarred.wav
     Peak level 83.2 %
     Extraction speed 8.5 X
     Track quality 100.0 %
     Test CRC 7C17BE82
     Copy CRC 7C17BE82
     Accurately ripped (confidence 7)  [EC93BA88]  (AR v2)
     Copy OK
Track 12
     Filename D:\РАЗДАЧИ!!!!\VA - Electrostorm Vol. 1 - 8 (8CD) - 2009 - 2017\Various - Electrostorm Volume 1 (OUT 353) - 2009\12 Fed Up.wav
     Peak level 98.2 %
     Extraction speed 8.7 X
     Track quality 100.0 %
     Test CRC F6B5090B
     Copy CRC F6B5090B
     Accurately ripped (confidence 7)  [FE2DA363]  (AR v2)
     Copy OK
Track 13
     Filename D:\РАЗДАЧИ!!!!\VA - Electrostorm Vol. 1 - 8 (8CD) - 2009 - 2017\Various - Electrostorm Volume 1 (OUT 353) - 2009\13 A Piece Of Me (Club Version).wav
     Peak level 98.8 %
     Extraction speed 9.1 X
     Track quality 100.0 %
     Test CRC 3A592CFA
     Copy CRC 3A592CFA
     Accurately ripped (confidence 7)  [C1022025]  (AR v2)
     Copy OK
Track 14
     Filename D:\РАЗДАЧИ!!!!\VA - Electrostorm Vol. 1 - 8 (8CD) - 2009 - 2017\Various - Electrostorm Volume 1 (OUT 353) - 2009\14 Back To What You Are (Military No Fashion Mix).wav
     Peak level 91.8 %
     Extraction speed 8.0 X
     Track quality 99.9 %
     Test CRC 05ADC893
     Copy CRC 05ADC893
     Accurately ripped (confidence 7)  [EC2B320F]  (AR v2)
     Copy OK
Track 15
     Filename D:\РАЗДАЧИ!!!!\VA - Electrostorm Vol. 1 - 8 (8CD) - 2009 - 2017\Various - Electrostorm Volume 1 (OUT 353) - 2009\15 Perverse Party.wav
     Peak level 99.6 %
     Extraction speed 9.7 X
     Track quality 100.0 %
     Test CRC 74DEE2DA
     Copy CRC 74DEE2DA
     Accurately ripped (confidence 7)  [F1AE3617]  (AR v2)
     Copy OK
Track 16
     Filename D:\РАЗДАЧИ!!!!\VA - Electrostorm Vol. 1 - 8 (8CD) - 2009 - 2017\Various - Electrostorm Volume 1 (OUT 353) - 2009\16 Clean.wav
     Peak level 98.1 %
     Extraction speed 8.2 X
     Track quality 99.9 %
     Test CRC 2F1A77BA
     Copy CRC 2F1A77BA
     Accurately ripped (confidence 7)  [F662B46F]  (AR v2)
     Copy OK
Track 17
     Filename D:\РАЗДАЧИ!!!!\VA - Electrostorm Vol. 1 - 8 (8CD) - 2009 - 2017\Various - Electrostorm Volume 1 (OUT 353) - 2009\17 Man Made Modern Machines.wav
     Peak level 98.7 %
     Extraction speed 6.3 X
     Track quality 99.9 %
     Test CRC 24EF95E6
     Copy CRC 24EF95E6
     Accurately ripped (confidence 7)  [5678E25A]  (AR v2)
     Copy OK
Track 18
     Filename D:\РАЗДАЧИ!!!!\VA - Electrostorm Vol. 1 - 8 (8CD) - 2009 - 2017\Various - Electrostorm Volume 1 (OUT 353) - 2009\18 Paddy Is My DJ.wav
     Peak level 99.9 %
     Extraction speed 10.1 X
     Track quality 100.0 %
     Test CRC 602978F7
     Copy CRC 602978F7
     Accurately ripped (confidence 7)  [89329925]  (AR v2)
     Copy OK
All tracks accurately ripped
No errors occurred
End of status report
---- CUETools DB Plugin V2.1.6
[CTDB TOCID: hA9GZ1X5xU5Y4tkbpJsuANlTQz0-] found
Submit result: hA9GZ1X5xU5Y4tkbpJsuANlTQz0- has been confirmed
Track | CTDB Status
  1   | (10/10) Accurately ripped
  2   | (10/10) Accurately ripped
  3   | (10/10) Accurately ripped
  4   | (10/10) Accurately ripped
  5   | (10/10) Accurately ripped
  6   | (10/10) Accurately ripped
  7   | (10/10) Accurately ripped
  8   | (10/10) Accurately ripped
  9   | (10/10) Accurately ripped
 10   | (10/10) Accurately ripped
 11   | (10/10) Accurately ripped
 12   | (10/10) Accurately ripped
 13   | (10/10) Accurately ripped
 14   | (10/10) Accurately ripped
 15   | (10/10) Accurately ripped
 16   | (10/10) Accurately ripped
 17   | (10/10) Accurately ripped
 18   | (10/10) Accurately ripped
==== Log checksum 8C4BDB0C77D57C69EF2C5851EDC24B8C0052C7CAEE16ACA03F79EF673A0A7E58 ====
   
Код:
REM GENRE "EBM, Industrial, Electro, Synth-pop"
REM DATE 2009
REM DISCID FE123012
REM COMMENT "ExactAudioCopy v1.3"
PERFORMER "Various Artists"
TITLE "Electrostorm Volume 1 (OUT 353)"
REM COMPOSER ""
FILE "01 The Ones.wav" WAVE
  TRACK 01 AUDIO
    TITLE "The Ones"
    PERFORMER "Aesthetic Perfection"
    REM COMPOSER ""
    INDEX 01 00:00:00
FILE "02 Edges (Mission Walhalla V).wav" WAVE
  TRACK 02 AUDIO
    TITLE "Edges (Mission Walhalla V)"
    PERFORMER "Kirlian Camera"
    REM COMPOSER ""
    INDEX 01 00:00:00
FILE "03 Staatsfeind.wav" WAVE
  TRACK 03 AUDIO
    TITLE "Staatsfeind"
    PERFORMER "Agonoize"
    REM COMPOSER ""
    INDEX 01 00:00:00
FILE "04 Waiting For The Night.wav" WAVE
  TRACK 04 AUDIO
    TITLE "Waiting For The Night"
    PERFORMER "Blutengel"
    REM COMPOSER ""
    INDEX 01 00:00:00
FILE "05 Slavesex (XXX version).wav" WAVE
  TRACK 05 AUDIO
    TITLE "Slavesex (XXX version)"
    PERFORMER "Die Form"
    REM COMPOSER ""
    INDEX 01 00:00:00
FILE "06 Glory In The Highest.wav" WAVE
  TRACK 06 AUDIO
    TITLE "Glory In The Highest"
    PERFORMER "Din [A] Tod"
    REM COMPOSER ""
    INDEX 01 00:00:00
FILE "07 Where The Buffalo Roam.wav" WAVE
  TRACK 07 AUDIO
    TITLE "Where The Buffalo Roam"
    PERFORMER "Auto-Auto"
    REM COMPOSER ""
    INDEX 01 00:00:00
FILE "08 Bleeding Words.wav" WAVE
  TRACK 08 AUDIO
    TITLE "Bleeding Words"
    PERFORMER "Elegant Machinery"
    REM COMPOSER ""
    INDEX 01 00:00:00
FILE "09 Smile.wav" WAVE
  TRACK 09 AUDIO
    TITLE "Smile"
    PERFORMER "Ashbury Heights"
    REM COMPOSER ""
    INDEX 01 00:00:00
FILE "10 Can You Feel (Kindle Remix).wav" WAVE
  TRACK 10 AUDIO
    TITLE "Can You Feel (Kindle Remix)"
    PERFORMER "Client"
    REM COMPOSER ""
    INDEX 01 00:00:00
FILE "11 Scarred.wav" WAVE
  TRACK 11 AUDIO
    TITLE "Scarred"
    PERFORMER "Combichrist"
    REM COMPOSER ""
    INDEX 01 00:00:00
FILE "12 Fed Up.wav" WAVE
  TRACK 12 AUDIO
    TITLE "Fed Up"
    PERFORMER "Hocico"
    REM COMPOSER ""
    INDEX 01 00:00:00
FILE "13 A Piece Of Me (Club Version).wav" WAVE
  TRACK 13 AUDIO
    TITLE "A Piece Of Me (Club Version)"
    PERFORMER "The Cyberchrist Project"
    REM COMPOSER ""
    INDEX 01 00:00:00
FILE "14 Back To What You Are (Military No Fashion Mix).wav" WAVE
  TRACK 14 AUDIO
    TITLE "Back To What You Are (Military No Fashion Mix)"
    PERFORMER "Kriminal Minds"
    REM COMPOSER ""
    INDEX 01 00:00:00
FILE "15 Perverse Party.wav" WAVE
  TRACK 15 AUDIO
    TITLE "Perverse Party"
    PERFORMER "Amduscia"
    REM COMPOSER ""
    INDEX 01 00:00:00
FILE "16 Clean.wav" WAVE
  TRACK 16 AUDIO
    TITLE "Clean"
    PERFORMER "Container 90"
    REM COMPOSER ""
    INDEX 01 00:00:00
FILE "17 Man Made Modern Machines.wav" WAVE
  TRACK 17 AUDIO
    TITLE "Man Made Modern Machines"
    PERFORMER "Turnbull A.C's"
    REM COMPOSER ""
    INDEX 01 00:00:00
FILE "18 Paddy Is My DJ.wav" WAVE
  TRACK 18 AUDIO
    TITLE "Paddy Is My DJ"
    PERFORMER "And One"
    REM COMPOSER ""
    INDEX 01 00:00:00
 
[/spoiler]
Код:
-----------------------
DON'T MODIFY THIS FILE
-----------------------
PERFORMER: auCDtect Task Manager, ver. 1.6.0 RC1 build 1.6.0.1
Copyright (c) 2008-2010 y-soft. All rights reserved
[url=http://y-soft.org]http://y-soft.org[/url]
ANALYZER: auCDtect: CD records authenticity detector, version 0.8.2
Copyright (c) 2004 Oleg Berngardt. All rights reserved.
Copyright (c) 2004 Alexander Djourik. All rights reserved.
FILE: 01 The Ones.flac
  Size: 43504378 Hash: B810148CE38A5D88072C3EF4B1764747 Accuracy: -m0
  Conclusion: CDDA 100%
  Signature: 3F267A6BF1E816D9216EE82EF9C08CD520BD2243
FILE: 02 Edges (Mission Walhalla V).flac
  Size: 25827823 Hash: CA231FAA1E5F30BE95084DE0ADB9DC42 Accuracy: -m0
  Conclusion: CDDA 99%
  Signature: 782B266B36E02B7095EEA3AE133F6830B1EDF9CA
FILE: 03 Staatsfeind.flac
  Size: 35521862 Hash: F14919379F5CA9B8E16C70B750C5AB0D Accuracy: -m0
  Conclusion: MPEG 95%
  Signature: E47E3C08879BC368157F9B7A8967745F73CC07FF
FILE: 04 Waiting For The Night.flac
  Size: 44361637 Hash: BCF1E41032A05D4CC53CB85E70218E82 Accuracy: -m0
  Conclusion: CDDA 100%
  Signature: DEBBEE47C892928E3A9A1EA484CF16114313ACF2
FILE: 05 Slavesex (XXX version).flac
  Size: 32628537 Hash: 8A824AD56C5B715E6E68F1B22B971513 Accuracy: -m0
  Conclusion: CDDA 100%
  Signature: F4BE24360324F91C36357530088F7F18DBFE47F1
FILE: 06 Glory In The Highest.flac
  Size: 29503947 Hash: 265471AD7494C563040FEB15246F2721 Accuracy: -m0
  Conclusion: CDDA 100%
  Signature: 69FF620101132F8AB7E59350854A71CEF7A8247E
FILE: 07 Where The Buffalo Roam.flac
  Size: 23750324 Hash: 4FBD86D4E647827DFA27631B6E3CC1E0 Accuracy: -m0
  Conclusion: CDDA 100%
  Signature: CD7EEE6F2CB2EFD28A11E924FCBF78A85241404E
FILE: 08 Bleeding Words.flac
  Size: 25245929 Hash: 15A9D613DFE466AE700C1AB3C008802E Accuracy: -m0
  Conclusion: CDDA 100%
  Signature: B4A557A745D6EEFA400905B1A44CF0EA64B967EC
FILE: 09 Smile.flac
  Size: 27667840 Hash: 6D8DCDC57E34C33BA88063042E7273AB Accuracy: -m0
  Conclusion: CDDA 99%
  Signature: F983670E8BDE081DCA1AD36B404E801ED5B75C22
FILE: 10 Can You Feel (Kindle Remix).flac
  Size: 34657117 Hash: 659A6E632685B8B8B34F8958E3EA5ED3 Accuracy: -m0
  Conclusion: CDDA 100%
  Signature: 645CAF07D296205C9604E12DD5ADF0D7950A93C2
FILE: 11 Scarred.flac
  Size: 35040600 Hash: EC2B56EE5C950EB3412C9983EBE5BD19 Accuracy: -m0
  Conclusion: CDDA 100%
  Signature: 9DE259E3F31F0F40BDA56FBD24DC12C08FFA363E
FILE: 12 Fed Up.flac
  Size: 40171308 Hash: 9BFB08A0C92726C25D514E6183629D42 Accuracy: -m0
  Conclusion: CDDA 100%
  Signature: 4908DB5407AFE1ECA4C4E700F8C311770592EA50
FILE: 13 A Piece Of Me (Club Version).flac
  Size: 32133629 Hash: 83CEBFA82BC39215247350966CD2DDFC Accuracy: -m0
  Conclusion: CDDA 100%
  Signature: 57CDFEE8CEEC1D0BC8F5C0FEC633BC8C94A37CD0
FILE: 14 Back To What You Are (Military No Fashion Mix).flac
  Size: 37381826 Hash: 92261E22CCFA1D3A2154813E33EFE846 Accuracy: -m0
  Conclusion: CDDA 100%
  Signature: 4704BBA4FE06DE83FDCFC75EC41D5F1519A58447
FILE: 15 Perverse Party.flac
  Size: 43907376 Hash: D58021A96E38F85E46521581316687EB Accuracy: -m0
  Conclusion: CDDA 100%
  Signature: 7F822FB373DC4429BDD9ADDE0F341A9FEF5BAF9A
FILE: 16 Clean.flac
  Size: 30002991 Hash: 777156A6D4A9216427491D647F6A4DE0 Accuracy: -m0
  Conclusion: CDDA 100%
  Signature: 63F1B5B7175B5B42B63F8E439EB5510E28E2C180
FILE: 17 Man Made Modern Machines.flac
  Size: 22419336 Hash: 59DD612AC7AB91D64AEEB58F14DD4319 Accuracy: -m0
  Conclusion: CDDA 100%
  Signature: B48CF008F2E9DEB6F725D2B4016AD9B0295E3ABD
FILE: 18 Paddy Is My DJ.flac
  Size: 32832501 Hash: 8B85AA5B784EDFBC17C08FBAAAA1B226 Accuracy: -m0
  Conclusion: CDDA 100%
  Signature: 524761D4AD5EA2D08A3456708A674537477D40C4
 
[/spoiler]
Код:
foobar2000 1.2.3 / Замер динамического диапазона (DR) 1.1.1
Дата отчёта: 2017-12-05 22:41:06
--------------------------------------------------------------------------------
Анализ:   Aesthetic Perfection / Electrostorm Volume 1 (OUT 353) (1)
          Agonoize / Electrostorm Volume 1 (OUT 353) (2)
          Amduscia / Electrostorm Volume 1 (OUT 353) (3)
          And One / Electrostorm Volume 1 (OUT 353) (4)
          Ashbury Heights / Electrostorm Volume 1 (OUT 353) (5)
          Auto-Auto / Electrostorm Volume 1 (OUT 353) (6)
          Blutengel / Electrostorm Volume 1 (OUT 353) (7)
          Client / Electrostorm Volume 1 (OUT 353) (8)
          Combichrist / Electrostorm Volume 1 (OUT 353) (9)
          Container 90 / Electrostorm Volume 1 (OUT 353) (10)
          Die Form / Electrostorm Volume 1 (OUT 353) (11)
          Din [A] Tod / Electrostorm Volume 1 (OUT 353) (12)
          Elegant Machinery / Electrostorm Volume 1 (OUT 353) (13)
          Hocico / Electrostorm Volume 1 (OUT 353) (14)
          Kirlian Camera / Electrostorm Volume 1 (OUT 353) (15)
          Kriminal Minds / Electrostorm Volume 1 (OUT 353) (16)
          The Cyberchrist Project / Electrostorm Volume 1 (OUT 353) (17)
          Turnbull A.C's / Electrostorm Volume 1 (OUT 353) (18)
--------------------------------------------------------------------------------
DR         Пики          RMS        Продолжительность трека
--------------------------------------------------------------------------------
DR6       -1.16 дБ    -8.18 дБ      5:34 01-The Ones
DR7       -0.16 дБ    -8.49 дБ      4:30 03-Staatsfeind
DR6       -0.03 дБ    -6.89 дБ      5:05 15-Perverse Party
DR6        0.00 дБ    -7.52 дБ      4:33 18-Paddy Is My DJ
DR6       -0.07 дБ    -8.14 дБ      3:42 09-Smile
DR7       -0.85 дБ    -8.08 дБ      3:23 07-Where The Buffalo Roam
DR6       -0.14 дБ    -8.35 дБ      5:43 04-Waiting For The Night
DR6       -0.54 дБ    -7.95 дБ      4:34 10-Can You Feel (Kindle Remix)
DR4       -1.59 дБ    -7.32 дБ      4:27 11-Scarred
DR5       -0.17 дБ    -7.79 дБ      4:22 16-Clean
DR6       -1.10 дБ    -7.61 дБ      4:01 05-Slavesex (XXX version)
DR6       -0.04 дБ    -7.08 дБ      3:45 06-Glory In The Highest
DR7       -0.14 дБ    -8.73 дБ      3:31 08-Bleeding Words
DR6       -0.15 дБ    -7.23 дБ      4:40 12-Fed Up
DR7       -0.05 дБ    -8.83 дБ      3:24 02-Edges (Mission Walhalla V)
DR5       -0.74 дБ    -6.57 дБ      4:50 14-Back To What You Are (Military No Fashion Mix)
DR7       -0.10 дБ    -8.78 дБ      4:25 13-A Piece Of Me (Club Version)
DR7       -0.11 дБ    -7.76 дБ      3:08 17-Man Made Modern Machines
--------------------------------------------------------------------------------
Количество треков: 18
Реальные значения DR: DR6
Частота:  44100 Гц
Каналов:  2
Разрядность:   16
Битрейт:  954 кбит/с
Кодек:   FLAC
================================================================================
 
[/spoiler]
[/spoiler][/spoiler]
#777Жанр: EBM, Industrial, Electro
Страна-производитель диска: Germany
Год выпуска диска: 2010
Дата выхода оригинального издания: 2010
Тип издания: CD, Compilation
Издатель (лейбл): Out Of Line
Номер по каталогу: OUT 410
Продолжительность: 01:15:28
Источник (релизер): Собственный рип
Наличие сканов в содержимом раздачи: да, PNG 600dpiТреклист
01. Chrom – Worst Day [04:01]
02. Die Form – Voltaic Control System [03:56]
03. Kirlian Camera – Eclipse - Anniversary (Edit) [04:28]
04. Marsheaux – Breakthrough [04:05]
05. Lola Angst – Boulevard Of Broken Hearts [04:28]
06. Rabia Sorda – Out Of Control [04:27]
07. Vomito Negro – Blood Sweat And Tears [03:53]
08. Suicide Commando – God Is In The Rain [05:30]
09. God Module – A Minute To Midnight [04:48]
10. Solitary Experiments – A Rush Of Ecstasy [04:52]
11. Blutengel – Soultaker [04:43]
12. Spectra Paris – Carrie Satan (Video Edit) [04:02]
13. Kriminal Minds – I Can't See You [04:30]
14. Combichrist – Can't Change The Beat [04:28]
15. Agonoize – Objectum Sexuality [04:38]
16. Terminal Choice – Keine Macht (Agonoize Mix) [04:17]
17. And One – Stand The Pain (Live) [04:23]
Код:
Exact Audio Copy V1.3 from 2. September 2016
EAC extraction logfile from 25. November 2017, 21:55
Various Artists / Electrostorm Volume 2 (OUT 410)
Used drive  : ASUS    BW-16D1HT   Adapter: 1  ID: 0
Read mode               : Secure
Utilize accurate stream : Yes
Defeat audio cache      : Yes
Make use of C2 pointers : No
Read offset correction                      : 6
Overread into Lead-In and Lead-Out          : No
Fill up missing offset samples with silence : Yes
Delete leading and trailing silent blocks   : No
Null samples used in CRC calculations       : Yes
Used interface                              : Native Win32 interface for Win NT & 2000
Gap handling                                : Appended to previous track
Used output format              : User Defined Encoder
Selected bitrate                : 1024 kBit/s
Quality                         : High
Add ID3 tag                     : No
Command line compressor         : C:\Program Files (x86)\Exact Audio Copy\FLAC\FLAC.EXE
Additional command line options : -T "COMMENT=Ripped by SergeyJD for rutracker.org" -8 -V -T "ARTIST=%artist%" -T "TITLE=%title%" -T "ALBUM=%albumtitle%" -T "DATE=%year%" -T "TRACKNUMBER=%tracknr%" -T "GENRE=%genre%" %source%
TOC of the extracted CD
     Track |   Start  |  Length  | Start sector | End sector
    ---------------------------------------------------------
        1  |  0:00.00 |  4:00.62 |         0    |    18061
        2  |  4:00.62 |  3:56.00 |     18062    |    35761
        3  |  7:56.62 |  4:27.58 |     35762    |    55844
        4  | 12:24.45 |  4:04.56 |     55845    |    74200
        5  | 16:29.26 |  4:27.38 |     74201    |    94263
        6  | 20:56.64 |  4:27.00 |     94264    |   114288
        7  | 25:23.64 |  3:52.68 |    114289    |   131756
        8  | 29:16.57 |  5:29.56 |    131757    |   156487
        9  | 34:46.38 |  4:48.00 |    156488    |   178087
       10  | 39:34.38 |  4:51.56 |    178088    |   199968
       11  | 44:26.19 |  4:43.19 |    199969    |   221212
       12  | 49:09.38 |  4:02.27 |    221213    |   239389
       13  | 53:11.65 |  4:30.03 |    239390    |   259642
       14  | 57:41.68 |  4:28.09 |    259643    |   279751
       15  | 62:10.02 |  4:38.10 |    279752    |   300611
       16  | 66:48.12 |  4:17.00 |    300612    |   319886
       17  | 71:05.12 |  4:22.69 |    319887    |   339605
Track  1
     Filename D:\РАЗДАЧИ!!!!\VA - Electrostorm Vol. 1 - 8 (8CD) - 2009 - 2017\Various - Electrostorm Volume 2 (OUT 410) - 2010\01 Worst Day.wav
     Pre-gap length  0:00:02.00
     Peak level 98.8 %
     Extraction speed 4.9 X
     Track quality 100.0 %
     Test CRC 8C3E6915
     Copy CRC 8C3E6915
     Accurately ripped (confidence 6)  [7E71D9AC]  (AR v2)
     Copy OK
Track  2
     Filename D:\РАЗДАЧИ!!!!\VA - Electrostorm Vol. 1 - 8 (8CD) - 2009 - 2017\Various - Electrostorm Volume 2 (OUT 410) - 2010\02 Voltaic Control System.wav
     Pre-gap length  0:00:01.74
     Peak level 98.8 %
     Extraction speed 5.4 X
     Track quality 100.0 %
     Test CRC D17B83D4
     Copy CRC D17B83D4
     Accurately ripped (confidence 6)  [9194E92E]  (AR v2)
     Copy OK
Track  3
     Filename D:\РАЗДАЧИ!!!!\VA - Electrostorm Vol. 1 - 8 (8CD) - 2009 - 2017\Various - Electrostorm Volume 2 (OUT 410) - 2010\03 Eclipse - Anniversary (Edit).wav
     Pre-gap length  0:00:01.74
     Peak level 98.8 %
     Extraction speed 5.9 X
     Track quality 100.0 %
     Test CRC E553FB22
     Copy CRC E553FB22
     Accurately ripped (confidence 6)  [4F14B049]  (AR v2)
     Copy OK
Track  4
     Filename D:\РАЗДАЧИ!!!!\VA - Electrostorm Vol. 1 - 8 (8CD) - 2009 - 2017\Various - Electrostorm Volume 2 (OUT 410) - 2010\04 Breakthrough.wav
     Pre-gap length  0:00:01.74
     Peak level 98.8 %
     Extraction speed 6.2 X
     Track quality 100.0 %
     Test CRC 025FB5E1
     Copy CRC 025FB5E1
     Accurately ripped (confidence 6)  [F9D3BBA6]  (AR v2)
     Copy OK
Track  5
     Filename D:\РАЗДАЧИ!!!!\VA - Electrostorm Vol. 1 - 8 (8CD) - 2009 - 2017\Various - Electrostorm Volume 2 (OUT 410) - 2010\05 Boulevard Of Broken Hearts.wav
     Pre-gap length  0:00:01.74
     Peak level 98.8 %
     Extraction speed 6.6 X
     Track quality 100.0 %
     Test CRC 9C48E5DC
     Copy CRC 9C48E5DC
     Accurately ripped (confidence 6)  [17859493]  (AR v2)
     Copy OK
Track  6
     Filename D:\РАЗДАЧИ!!!!\VA - Electrostorm Vol. 1 - 8 (8CD) - 2009 - 2017\Various - Electrostorm Volume 2 (OUT 410) - 2010\06 Out Of Control.wav
     Pre-gap length  0:00:01.74
     Peak level 98.8 %
     Extraction speed 7.0 X
     Track quality 100.0 %
     Test CRC 7D3FDD1B
     Copy CRC 7D3FDD1B
     Accurately ripped (confidence 6)  [19144513]  (AR v2)
     Copy OK
Track  7
     Filename D:\РАЗДАЧИ!!!!\VA - Electrostorm Vol. 1 - 8 (8CD) - 2009 - 2017\Various - Electrostorm Volume 2 (OUT 410) - 2010\07 Blood Sweat And Tears.wav
     Pre-gap length  0:00:01.74
     Peak level 98.8 %
     Extraction speed 7.1 X
     Track quality 100.0 %
     Test CRC 4F2F28AB
     Copy CRC 4F2F28AB
     Accurately ripped (confidence 6)  [D9954AF9]  (AR v2)
     Copy OK
Track  8
     Filename D:\РАЗДАЧИ!!!!\VA - Electrostorm Vol. 1 - 8 (8CD) - 2009 - 2017\Various - Electrostorm Volume 2 (OUT 410) - 2010\08 God Is In The Rain.wav
     Pre-gap length  0:00:01.74
     Peak level 98.8 %
     Extraction speed 7.8 X
     Track quality 100.0 %
     Test CRC 498E09D3
     Copy CRC 498E09D3
     Accurately ripped (confidence 6)  [E0EE0631]  (AR v2)
     Copy OK
Track  9
     Filename D:\РАЗДАЧИ!!!!\VA - Electrostorm Vol. 1 - 8 (8CD) - 2009 - 2017\Various - Electrostorm Volume 2 (OUT 410) - 2010\09 A Minute To Midnight.wav
     Pre-gap length  0:00:01.74
     Peak level 98.8 %
     Extraction speed 8.0 X
     Track quality 100.0 %
     Test CRC B802FF2A
     Copy CRC B802FF2A
     Accurately ripped (confidence 5)  [13F93432]  (AR v2)
     Copy OK
Track 10
     Filename D:\РАЗДАЧИ!!!!\VA - Electrostorm Vol. 1 - 8 (8CD) - 2009 - 2017\Various - Electrostorm Volume 2 (OUT 410) - 2010\10 A Rush Of Ecstasy.wav
     Pre-gap length  0:00:01.74
     Peak level 98.8 %
     Extraction speed 8.4 X
     Track quality 100.0 %
     Test CRC 52AFCEDB
     Copy CRC 52AFCEDB
     Accurately ripped (confidence 6)  [AF672EF2]  (AR v2)
     Copy OK
Track 11
     Filename D:\РАЗДАЧИ!!!!\VA - Electrostorm Vol. 1 - 8 (8CD) - 2009 - 2017\Various - Electrostorm Volume 2 (OUT 410) - 2010\11 Soultaker.wav
     Pre-gap length  0:00:01.74
     Peak level 98.8 %
     Extraction speed 8.6 X
     Track quality 100.0 %
     Test CRC 6B773A72
     Copy CRC 6B773A72
     Accurately ripped (confidence 5)  [1C6B4E58]  (AR v2)
     Copy OK
Track 12
     Filename D:\РАЗДАЧИ!!!!\VA - Electrostorm Vol. 1 - 8 (8CD) - 2009 - 2017\Various - Electrostorm Volume 2 (OUT 410) - 2010\12 Carrie Satan (Video Edit).wav
     Pre-gap length  0:00:01.74
     Peak level 98.8 %
     Extraction speed 7.2 X
     Track quality 99.9 %
     Test CRC BB0FE256
     Copy CRC BB0FE256
     Accurately ripped (confidence 5)  [FBC7324D]  (AR v2)
     Copy OK
Track 13
     Filename D:\РАЗДАЧИ!!!!\VA - Electrostorm Vol. 1 - 8 (8CD) - 2009 - 2017\Various - Electrostorm Volume 2 (OUT 410) - 2010\13 I Can’t See You.wav
     Pre-gap length  0:00:01.74
     Peak level 98.8 %
     Extraction speed 8.5 X
     Track quality 100.0 %
     Test CRC 73635741
     Copy CRC 73635741
     Accurately ripped (confidence 6)  [059AA519]  (AR v2)
     Copy OK
Track 14
     Filename D:\РАЗДАЧИ!!!!\VA - Electrostorm Vol. 1 - 8 (8CD) - 2009 - 2017\Various - Electrostorm Volume 2 (OUT 410) - 2010\14 Can’t Change The Beat.wav
     Pre-gap length  0:00:01.74
     Peak level 98.8 %
     Extraction speed 9.3 X
     Track quality 100.0 %
     Test CRC A8D410FE
     Copy CRC A8D410FE
     Accurately ripped (confidence 6)  [7FF6E037]  (AR v2)
     Copy OK
Track 15
     Filename D:\РАЗДАЧИ!!!!\VA - Electrostorm Vol. 1 - 8 (8CD) - 2009 - 2017\Various - Electrostorm Volume 2 (OUT 410) - 2010\15 Objectum Sexuality.wav
     Pre-gap length  0:00:01.74
     Peak level 98.8 %
     Extraction speed 9.6 X
     Track quality 100.0 %
     Test CRC D29034E0
     Copy CRC D29034E0
     Accurately ripped (confidence 6)  [A8561ED3]  (AR v2)
     Copy OK
Track 16
     Filename D:\РАЗДАЧИ!!!!\VA - Electrostorm Vol. 1 - 8 (8CD) - 2009 - 2017\Various - Electrostorm Volume 2 (OUT 410) - 2010\16 Keine Macht (Agonoize Mix).wav
     Pre-gap length  0:00:01.74
     Peak level 98.8 %
     Extraction speed 9.6 X
     Track quality 100.0 %
     Test CRC C3E30204
     Copy CRC C3E30204
     Accurately ripped (confidence 6)  [889729C9]  (AR v2)
     Copy OK
Track 17
     Filename D:\РАЗДАЧИ!!!!\VA - Electrostorm Vol. 1 - 8 (8CD) - 2009 - 2017\Various - Electrostorm Volume 2 (OUT 410) - 2010\17 Stand The Pain (Live).wav
     Pre-gap length  0:00:01.74
     Peak level 98.8 %
     Extraction speed 7.9 X
     Track quality 99.9 %
     Test CRC 977780E1
     Copy CRC 977780E1
     Accurately ripped (confidence 6)  [B84E1EC5]  (AR v2)
     Copy OK
All tracks accurately ripped
No errors occurred
End of status report
---- CUETools DB Plugin V2.1.6
[CTDB TOCID: ut1Wq0fnj7yzunV3PkoAxL4yeLk-] found
Submit result: ut1Wq0fnj7yzunV3PkoAxL4yeLk- has been confirmed
Track | CTDB Status
  1   | (4/4) Accurately ripped
  2   | (4/4) Accurately ripped
  3   | (4/4) Accurately ripped
  4   | (4/4) Accurately ripped
  5   | (4/4) Accurately ripped
  6   | (4/4) Accurately ripped
  7   | (4/4) Accurately ripped
  8   | (4/4) Accurately ripped
  9   | (4/4) Accurately ripped
 10   | (4/4) Accurately ripped
 11   | (4/4) Accurately ripped
 12   | (4/4) Accurately ripped
 13   | (4/4) Accurately ripped
 14   | (4/4) Accurately ripped
 15   | (4/4) Accurately ripped
 16   | (4/4) Accurately ripped
 17   | (4/4) Accurately ripped
==== Log checksum CCE56903756F4533A370B2F606A1BAFECED6F0FFD358AC45C3085B15E4F0D6C4 ====
   
Код:
REM GENRE "EBM, Industrial, Electro, Synth-pop"
REM DATE 2010
REM DISCID 0611B011
REM COMMENT "ExactAudioCopy v1.3"
PERFORMER "Various Artists"
TITLE "Electrostorm Volume 2 (OUT 410)"
REM COMPOSER ""
FILE "01 Worst Day.wav" WAVE
  TRACK 01 AUDIO
    TITLE "Worst Day"
    PERFORMER "Chrom"
    REM COMPOSER ""
    INDEX 01 00:00:00
  TRACK 02 AUDIO
    TITLE "Voltaic Control System"
    PERFORMER "Die Form"
    REM COMPOSER ""
    INDEX 00 03:58:63
FILE "02 Voltaic Control System.wav" WAVE
    INDEX 01 00:00:00
  TRACK 03 AUDIO
    TITLE "Eclipse - Anniversary (Edit)"
    PERFORMER "Kirlian Camera"
    REM COMPOSER ""
    INDEX 00 03:54:01
FILE "03 Eclipse - Anniversary (Edit).wav" WAVE
    INDEX 01 00:00:00
  TRACK 04 AUDIO
    TITLE "Breakthrough"
    PERFORMER "Marsheaux"
    REM COMPOSER ""
    INDEX 00 04:25:59
FILE "04 Breakthrough.wav" WAVE
    INDEX 01 00:00:00
  TRACK 05 AUDIO
    TITLE "Boulevard Of Broken Hearts"
    PERFORMER "Lola Angst"
    REM COMPOSER ""
    INDEX 00 04:02:57
FILE "05 Boulevard Of Broken Hearts.wav" WAVE
    INDEX 01 00:00:00
  TRACK 06 AUDIO
    TITLE "Out Of Control"
    PERFORMER "Rabia Sorda"
    REM COMPOSER ""
    INDEX 00 04:25:39
FILE "06 Out Of Control.wav" WAVE
    INDEX 01 00:00:00
  TRACK 07 AUDIO
    TITLE "Blood Sweat And Tears"
    PERFORMER "Vomito Negro"
    REM COMPOSER ""
    INDEX 00 04:25:01
FILE "07 Blood Sweat And Tears.wav" WAVE
    INDEX 01 00:00:00
  TRACK 08 AUDIO
    TITLE "God Is In The Rain"
    PERFORMER "Suicide Commando"
    REM COMPOSER ""
    INDEX 00 03:50:69
FILE "08 God Is In The Rain.wav" WAVE
    INDEX 01 00:00:00
  TRACK 09 AUDIO
    TITLE "A Minute To Midnight"
    PERFORMER "God Module"
    REM COMPOSER ""
    INDEX 00 05:27:57
FILE "09 A Minute To Midnight.wav" WAVE
    INDEX 01 00:00:00
  TRACK 10 AUDIO
    TITLE "A Rush Of Ecstasy"
    PERFORMER "Solitary Experiments"
    REM COMPOSER ""
    INDEX 00 04:46:01
FILE "10 A Rush Of Ecstasy.wav" WAVE
    INDEX 01 00:00:00
  TRACK 11 AUDIO
    TITLE "Soultaker"
    PERFORMER "Blutengel"
    REM COMPOSER ""
    INDEX 00 04:49:57
FILE "11 Soultaker.wav" WAVE
    INDEX 01 00:00:00
  TRACK 12 AUDIO
    TITLE "Carrie Satan (Video Edit)"
    PERFORMER "Spectra Paris"
    REM COMPOSER ""
    INDEX 00 04:41:20
FILE "12 Carrie Satan (Video Edit).wav" WAVE
    INDEX 01 00:00:00
  TRACK 13 AUDIO
    TITLE "I Can’t See You"
    PERFORMER "Kriminal Minds"
    REM COMPOSER ""
    INDEX 00 04:00:28
FILE "13 I Can’t See You.wav" WAVE
    INDEX 01 00:00:00
  TRACK 14 AUDIO
    TITLE "Can’t Change The Beat"
    PERFORMER "Combichrist"
    REM COMPOSER ""
    INDEX 00 04:28:04
FILE "14 Can’t Change The Beat.wav" WAVE
    INDEX 01 00:00:00
  TRACK 15 AUDIO
    TITLE "Objectum Sexuality"
    PERFORMER "Agonoize"
    REM COMPOSER ""
    INDEX 00 04:26:10
FILE "15 Objectum Sexuality.wav" WAVE
    INDEX 01 00:00:00
  TRACK 16 AUDIO
    TITLE "Keine Macht (Agonoize Mix)"
    PERFORMER "Terminal Choice"
    REM COMPOSER ""
    INDEX 00 04:36:11
FILE "16 Keine Macht (Agonoize Mix).wav" WAVE
    INDEX 01 00:00:00
  TRACK 17 AUDIO
    TITLE "Stand The Pain (Live)"
    PERFORMER "And One"
    REM COMPOSER ""
    INDEX 00 04:15:01
FILE "17 Stand The Pain (Live).wav" WAVE
    INDEX 01 00:00:00
 
[/spoiler]
Код:
-----------------------
DON'T MODIFY THIS FILE
-----------------------
PERFORMER: auCDtect Task Manager, ver. 1.6.0 RC1 build 1.6.0.1
Copyright (c) 2008-2010 y-soft. All rights reserved
[url=http://y-soft.org]http://y-soft.org[/url]
ANALYZER: auCDtect: CD records authenticity detector, version 0.8.2
Copyright (c) 2004 Oleg Berngardt. All rights reserved.
Copyright (c) 2004 Alexander Djourik. All rights reserved.
FILE: 01 Worst Day.flac
  Size: 31610845 Hash: 484DE49BEA509A40B962053415BCA815 Accuracy: -m0
  Conclusion: CDDA 100%
  Signature: DFEF199B0552426E352B915E595496DBE0F6EC7F
FILE: 02 Voltaic Control System.flac
  Size: 29964064 Hash: F666F4C93FB25A150DF5A6752C562C21 Accuracy: -m0
  Conclusion: CDDA 100%
  Signature: 468DA491C02350457D7436C293F10C0D76144428
FILE: 03 Eclipse - Anniversary (Edit).flac
  Size: 34904501 Hash: 6D3C344696D2633EDF0393E4595C1202 Accuracy: -m0
  Conclusion: CDDA 100%
  Signature: 9A6C64C2F74E3530D333CF2CD5362D51C38DE0C9
FILE: 04 Breakthrough.flac
  Size: 31718873 Hash: 0503F1FF0C195822FB4727E557A7D53E Accuracy: -m0
  Conclusion: CDDA 100%
  Signature: A9AD4C78F7069B6048D28EBF7DA6A28C747AB0AA
FILE: 05 Boulevard Of Broken Hearts.flac
  Size: 34262395 Hash: 1E8AA831F82BB09695CC9971F3A71F9A Accuracy: -m0
  Conclusion: CDDA 100%
  Signature: EE396FB15E37A1DEFF419BD1D183A19DF132455A
FILE: 06 Out Of Control.flac
  Size: 34850866 Hash: D01F9D02AE74D868F61D07DB22CB983E Accuracy: -m0
  Conclusion: CDDA 100%
  Signature: 9607EC831CD8E9392BD6257D753EBBBF51A58640
FILE: 07 Blood Sweat And Tears.flac
  Size: 32805348 Hash: 73F299395AD85092C1149BBC2C74A79E Accuracy: -m0
  Conclusion: CDDA 100%
  Signature: D5BF3ACA2BCEB6BC3540AE001ED76BD3467FA6D7
FILE: 08 God Is In The Rain.flac
  Size: 39475680 Hash: 13B1B3FDBF893E8701F62E57507AA3F4 Accuracy: -m0
  Conclusion: CDDA 100%
  Signature: BF240149F4CF00A73D0CCB0F12E79A33DD6DAF9F
FILE: 09 A Minute To Midnight.flac
  Size: 40326911 Hash: C4CADD0E9B90D30D420FA332E4FB7EC6 Accuracy: -m0
  Conclusion: CDDA 100%
  Signature: 7B013DEB00BA235ABDFA833F27FA78034BD966EB
FILE: 10 A Rush Of Ecstasy.flac
  Size: 37975647 Hash: 808142A8F4E2170C09FE8FDCE04361FD Accuracy: -m0
  Conclusion: CDDA 100%
  Signature: 6380E17F0ABC5C2CAF05A407A9603CF1C586912E
FILE: 11 Soultaker.flac
  Size: 37234333 Hash: F726B2D8F0468F6B9B14C904D106343C Accuracy: -m0
  Conclusion: CDDA 100%
  Signature: AA96D664DE3BE3133F4458A8BEEB80886D07EE13
FILE: 12 Carrie Satan (Video Edit).flac
  Size: 29956541 Hash: 08AA7C961777F59BB4F5DBAD2A1CD5A4 Accuracy: -m0
  Conclusion: CDDA 100%
  Signature: 1C4C4E7972FF68EBBCF6E0B0CB15EC1ABE826389
FILE: 13 I Can’t See You.flac
  Size: 36264799 Hash: 2ABACEE17FFCF7305CBD8E48F2F06CB5 Accuracy: -m0
  Conclusion: CDDA 100%
  Signature: B6CCAE6A770AE24CA20062D0D5DE07509A5CBE24
FILE: 14 Can’t Change The Beat.flac
  Size: 34750819 Hash: DEE74B896F5DC418C3655CEC18C23305 Accuracy: -m0
  Conclusion: CDDA 100%
  Signature: DFB37F29FA0BD0B32551A3F3199D7403A6946DC5
FILE: 15 Objectum Sexuality.flac
  Size: 35312481 Hash: 9AC05D14BC3C7C14EBF4123B98D5CE9A Accuracy: -m0
  Conclusion: CDDA 100%
  Signature: A40305CF3C023F1E0E7B2D7AAD42B9AC78A1FF01
FILE: 16 Keine Macht (Agonoize Mix).flac
  Size: 31560076 Hash: D61049BE6DED595B051165F9CCD0C7C9 Accuracy: -m0
  Conclusion: CDDA 100%
  Signature: DD31F48120C681B4B5B1A97303D255E8B4834102
FILE: 17 Stand The Pain (Live).flac
  Size: 33941997 Hash: 4418F0DB15E56A023D5E8ADA00CA8AE1 Accuracy: -m0
  Conclusion: CDDA 100%
  Signature: 6F44D81EFA21EBAC84AD443A80FE506C70B773AB
 
[/spoiler]
Код:
foobar2000 1.2.3 / Замер динамического диапазона (DR) 1.1.1
Дата отчёта: 2017-12-05 23:13:32
--------------------------------------------------------------------------------
Анализ:   Agonoize / Electrostorm Volume 2 (OUT 410) (1)
          And One / Electrostorm Volume 2 (OUT 410) (2)
          Blutengel / Electrostorm Volume 2 (OUT 410) (3)
          Chrom / Electrostorm Volume 2 (OUT 410) (4)
          Combichrist / Electrostorm Volume 2 (OUT 410) (5)
          Die Form / Electrostorm Volume 2 (OUT 410) (6)
          God Module / Electrostorm Volume 2 (OUT 410) (7)
          Kirlian Camera / Electrostorm Volume 2 (OUT 410) (8)
          Kriminal Minds / Electrostorm Volume 2 (OUT 410) (9)
          Lola Angst / Electrostorm Volume 2 (OUT 410) (10)
          Marsheaux / Electrostorm Volume 2 (OUT 410) (11)
          Rabia Sorda / Electrostorm Volume 2 (OUT 410) (12)
          Solitary Experiments / Electrostorm Volume 2 (OUT 410) (13)
          Spectra Paris / Electrostorm Volume 2 (OUT 410) (14)
          Suicide Commando / Electrostorm Volume 2 (OUT 410) (15)
          Terminal Choice / Electrostorm Volume 2 (OUT 410) (16)
          Vomito Negro / Electrostorm Volume 2 (OUT 410) (17)
--------------------------------------------------------------------------------
DR         Пики          RMS        Продолжительность трека
--------------------------------------------------------------------------------
DR5       -0.10 дБ    -6.24 дБ      4:38 15-Objectum Sexuality
DR6       -0.10 дБ    -8.20 дБ      4:23 17-Stand The Pain (Live)
DR5       -0.10 дБ    -6.02 дБ      4:43 11-Soultaker
DR6       -0.10 дБ    -6.85 дБ      4:01 01-Worst Day
DR6       -0.10 дБ    -6.53 дБ      4:28 14-Can’t Change The Beat
DR6       -0.10 дБ    -6.77 дБ      3:56 02-Voltaic Control System
DR6       -0.10 дБ    -6.60 дБ      4:48 09-A Minute To Midnight
DR6       -0.10 дБ    -7.01 дБ      4:28 03-Eclipse - Anniversary (Edit)
DR5       -0.10 дБ    -5.65 дБ      4:30 13-I Can’t See You
DR6       -0.10 дБ    -6.74 дБ      4:28 05-Boulevard Of Broken Hearts
DR5       -0.10 дБ    -6.00 дБ      4:05 04-Breakthrough
DR5       -0.10 дБ    -6.79 дБ      4:27 06-Out Of Control
DR5       -0.10 дБ    -6.70 дБ      4:52 10-A Rush Of Ecstasy
DR4       -0.10 дБ    -4.62 дБ      4:02 12-Carrie Satan (Video Edit)
DR6       -0.10 дБ    -6.83 дБ      5:30 08-God Is In The Rain
DR6       -0.10 дБ    -8.02 дБ      4:17 16-Keine Macht (Agonoize Mix)
DR6       -0.10 дБ    -6.14 дБ      3:53 07-Blood Sweat And Tears
--------------------------------------------------------------------------------
Количество треков: 17
Реальные значения DR: DR5
Частота:  44100 Гц
Каналов:  2
Разрядность:   16
Битрейт:  1127 кбит/с
Кодек:   FLAC
================================================================================
 
[/spoiler]
[/spoiler][/spoiler]
#777Жанр: EBM, Industrial, Electro
Страна-производитель диска: Germany
Год выпуска диска: 2012
Дата выхода оригинального издания: 2012
Тип издания: CD, Compilation
Издатель (лейбл): Out Of Line
Номер по каталогу: OUT 544
Продолжительность: 01:17:46
Источник (релизер): Собственный рип
Наличие сканов в содержимом раздачи: да, PNG 600dpiТреклист
01. Blutengel – Anders Sein [04:43]
02. Alpha Point – High Like The Angels [03:37]
03. Chrom – Memories (Edit) [03:59]
04. Kaleid – Hysteria (Stripped Down) [04:23]/b]color]
05.
Pakt – Lichterloh [04:13]
06. Aesthetic Perfection – Hit The Streets [04:21]
07. Formalin – Collider [03:52]
08. Dive – Sidewalk Sinner [03:28]
09. Kirlian Camera – Nightglory [03:30]
10. Auto-Auto – Black Disco Ball [03:41]
11. Javelynn – Skip A Heartbeat [04:07]
12. Hocico – Where Words Fail, Hate Speaks [04:26]
13. Agonoize – Glaubenskrieger [04:01]
14. Gecko Sector – Second Face [05:12]
15. Jager 90 – Beim Ersten Mal Tat's Nicht Weh [03:32]
16. Cephalgy – Sternenkinder [04:00]
17. God Module – Rituals [04:15]
18. Amduscia – Wild Girls [04:32]
19. Forgotten Sunrise – All Ctrl [03:56]
Код:
Exact Audio Copy V1.3 from 2. September 2016
EAC extraction logfile from 25. November 2017, 22:47
Various Artists / Electrostorm Volume 3 (OUT 544)
Used drive  : ASUS    BW-16D1HT   Adapter: 1  ID: 0
Read mode               : Secure
Utilize accurate stream : Yes
Defeat audio cache      : Yes
Make use of C2 pointers : No
Read offset correction                      : 6
Overread into Lead-In and Lead-Out          : No
Fill up missing offset samples with silence : Yes
Delete leading and trailing silent blocks   : No
Null samples used in CRC calculations       : Yes
Used interface                              : Native Win32 interface for Win NT & 2000
Gap handling                                : Appended to previous track
Used output format              : User Defined Encoder
Selected bitrate                : 1024 kBit/s
Quality                         : High
Add ID3 tag                     : No
Command line compressor         : C:\Program Files (x86)\Exact Audio Copy\FLAC\FLAC.EXE
Additional command line options : -T "COMMENT=Ripped by SergeyJD for rutracker.org" -8 -V -T "ARTIST=%artist%" -T "TITLE=%title%" -T "ALBUM=%albumtitle%" -T "DATE=%year%" -T "TRACKNUMBER=%tracknr%" -T "GENRE=%genre%" %source%
TOC of the extracted CD
     Track |   Start  |  Length  | Start sector | End sector
    ---------------------------------------------------------
        1  |  0:00.00 |  4:42.56 |         0    |    21205
        2  |  4:42.56 |  3:36.36 |     21206    |    37441
        3  |  8:19.17 |  3:59.20 |     37442    |    55386
        4  | 12:18.37 |  4:23.11 |     55387    |    75122
        5  | 16:41.48 |  4:12.36 |     75123    |    94058
        6  | 20:54.09 |  4:21.22 |     94059    |   113655
        7  | 25:15.31 |  3:51.62 |    113656    |   131042
        8  | 29:07.18 |  3:28.01 |    131043    |   146643
        9  | 32:35.19 |  3:30.33 |    146644    |   162426
       10  | 36:05.52 |  3:41.23 |    162427    |   179024
       11  | 39:47.00 |  4:06.51 |    179025    |   197525
       12  | 43:53.51 |  4:25.52 |    197526    |   217452
       13  | 48:19.28 |  4:00.45 |    217453    |   235497
       14  | 52:19.73 |  5:11.43 |    235498    |   258865
       15  | 57:31.41 |  3:31.53 |    258866    |   274743
       16  | 61:03.19 |  3:59.69 |    274744    |   292737
       17  | 65:03.13 |  4:15.16 |    292738    |   311878
       18  | 69:18.29 |  4:32.12 |    311879    |   332290
       19  | 73:50.41 |  3:56.11 |    332291    |   350001
Track  1
     Filename D:\РАЗДАЧИ!!!!\VA - Electrostorm Vol. 1 - 8 (8CD) - 2009 - 2017\Various - Electrostorm Volume 3 (OUT 544) - 2012\01 Anders Sein.wav
     Pre-gap length  0:00:02.00
     Peak level 98.0 %
     Extraction speed 5.1 X
     Track quality 100.0 %
     Test CRC EE3262FA
     Copy CRC EE3262FA
     Accurately ripped (confidence 5)  [60B09003]  (AR v2)
     Copy OK
Track  2
     Filename D:\РАЗДАЧИ!!!!\VA - Electrostorm Vol. 1 - 8 (8CD) - 2009 - 2017\Various - Electrostorm Volume 3 (OUT 544) - 2012\02 High Like The Angels.wav
     Peak level 97.0 %
     Extraction speed 4.4 X
     Track quality 99.9 %
     Test CRC 4F0A7571
     Copy CRC 4F0A7571
     Accurately ripped (confidence 5)  [C5CB950B]  (AR v2)
     Copy OK
Track  3
     Filename D:\РАЗДАЧИ!!!!\VA - Electrostorm Vol. 1 - 8 (8CD) - 2009 - 2017\Various - Electrostorm Volume 3 (OUT 544) - 2012\03 Memories (Edit).wav
     Peak level 97.2 %
     Extraction speed 5.8 X
     Track quality 100.0 %
     Test CRC CFE30944
     Copy CRC CFE30944
     Accurately ripped (confidence 5)  [2D1B388F]  (AR v2)
     Copy OK
Track  4
     Filename D:\РАЗДАЧИ!!!!\VA - Electrostorm Vol. 1 - 8 (8CD) - 2009 - 2017\Various - Electrostorm Volume 3 (OUT 544) - 2012\04 Hysteria (Stripped Down).wav
     Peak level 97.7 %
     Extraction speed 6.3 X
     Track quality 100.0 %
     Test CRC 1A80B85A
     Copy CRC 1A80B85A
     Accurately ripped (confidence 5)  [6CBE9097]  (AR v2)
     Copy OK
Track  5
     Filename D:\РАЗДАЧИ!!!!\VA - Electrostorm Vol. 1 - 8 (8CD) - 2009 - 2017\Various - Electrostorm Volume 3 (OUT 544) - 2012\05 Lichterloh.wav
     Peak level 97.1 %
     Extraction speed 6.6 X
     Track quality 100.0 %
     Test CRC 78076316
     Copy CRC 78076316
     Accurately ripped (confidence 5)  [2FC85A5B]  (AR v2)
     Copy OK
Track  6
     Filename D:\РАЗДАЧИ!!!!\VA - Electrostorm Vol. 1 - 8 (8CD) - 2009 - 2017\Various - Electrostorm Volume 3 (OUT 544) - 2012\06 Hit The Streets.wav
     Peak level 97.0 %
     Extraction speed 5.8 X
     Track quality 99.9 %
     Test CRC 591AE011
     Copy CRC 591AE011
     Accurately ripped (confidence 5)  [601AD6A8]  (AR v2)
     Copy OK
Track  7
     Filename D:\РАЗДАЧИ!!!!\VA - Electrostorm Vol. 1 - 8 (8CD) - 2009 - 2017\Various - Electrostorm Volume 3 (OUT 544) - 2012\07 Collider.wav
     Peak level 97.3 %
     Extraction speed 7.2 X
     Track quality 100.0 %
     Test CRC 272FCC87
     Copy CRC 272FCC87
     Accurately ripped (confidence 5)  [D34B6CA2]  (AR v2)
     Copy OK
Track  8
     Filename D:\РАЗДАЧИ!!!!\VA - Electrostorm Vol. 1 - 8 (8CD) - 2009 - 2017\Various - Electrostorm Volume 3 (OUT 544) - 2012\08 Sidewalk Sinner.wav
     Peak level 97.2 %
     Extraction speed 7.3 X
     Track quality 100.0 %
     Test CRC DFE7DE68
     Copy CRC DFE7DE68
     Accurately ripped (confidence 5)  [56CAE9AB]  (AR v2)
     Copy OK
Track  9
     Filename D:\РАЗДАЧИ!!!!\VA - Electrostorm Vol. 1 - 8 (8CD) - 2009 - 2017\Various - Electrostorm Volume 3 (OUT 544) - 2012\09 Nightglory.wav
     Peak level 97.2 %
     Extraction speed 7.6 X
     Track quality 100.0 %
     Test CRC F747C320
     Copy CRC F747C320
     Accurately ripped (confidence 5)  [E000E6D2]  (AR v2)
     Copy OK
Track 10
     Filename D:\РАЗДАЧИ!!!!\VA - Electrostorm Vol. 1 - 8 (8CD) - 2009 - 2017\Various - Electrostorm Volume 3 (OUT 544) - 2012\10 Black Disco Ball.wav
     Peak level 98.3 %
     Extraction speed 7.8 X
     Track quality 100.0 %
     Test CRC 1D6ABDAC
     Copy CRC 1D6ABDAC
     Accurately ripped (confidence 5)  [BB600487]  (AR v2)
     Copy OK
Track 11
     Filename D:\РАЗДАЧИ!!!!\VA - Electrostorm Vol. 1 - 8 (8CD) - 2009 - 2017\Various - Electrostorm Volume 3 (OUT 544) - 2012\11 Skip A Heartbeat.wav
     Peak level 96.3 %
     Extraction speed 6.8 X
     Track quality 99.9 %
     Test CRC 35ED5037
     Copy CRC 35ED5037
     Accurately ripped (confidence 5)  [31690C09]  (AR v2)
     Copy OK
Track 12
     Filename D:\РАЗДАЧИ!!!!\VA - Electrostorm Vol. 1 - 8 (8CD) - 2009 - 2017\Various - Electrostorm Volume 3 (OUT 544) - 2012\12 Where Words Fail, Hate Speaks.wav
     Peak level 97.6 %
     Extraction speed 8.6 X
     Track quality 100.0 %
     Test CRC E86BA4D5
     Copy CRC E86BA4D5
     Accurately ripped (confidence 5)  [394D6AA2]  (AR v2)
     Copy OK
Track 13
     Filename D:\РАЗДАЧИ!!!!\VA - Electrostorm Vol. 1 - 8 (8CD) - 2009 - 2017\Various - Electrostorm Volume 3 (OUT 544) - 2012\13 Glaubenskrieger.wav
     Peak level 93.3 %
     Extraction speed 8.6 X
     Track quality 100.0 %
     Test CRC 288580F3
     Copy CRC 288580F3
     Accurately ripped (confidence 5)  [EB021788]  (AR v2)
     Copy OK
Track 14
     Filename D:\РАЗДАЧИ!!!!\VA - Electrostorm Vol. 1 - 8 (8CD) - 2009 - 2017\Various - Electrostorm Volume 3 (OUT 544) - 2012\14 Second Face.wav
     Peak level 91.6 %
     Extraction speed 9.2 X
     Track quality 100.0 %
     Test CRC 9D2AF600
     Copy CRC 9D2AF600
     Accurately ripped (confidence 5)  [755F205B]  (AR v2)
     Copy OK
Track 15
     Filename D:\РАЗДАЧИ!!!!\VA - Electrostorm Vol. 1 - 8 (8CD) - 2009 - 2017\Various - Electrostorm Volume 3 (OUT 544) - 2012\15 Beim Ersten Mal tat’s Nicht Weh.wav
     Peak level 97.2 %
     Extraction speed 9.0 X
     Track quality 100.0 %
     Test CRC 41E47156
     Copy CRC 41E47156
     Accurately ripped (confidence 5)  [21CA26BA]  (AR v2)
     Copy OK
Track 16
     Filename D:\РАЗДАЧИ!!!!\VA - Electrostorm Vol. 1 - 8 (8CD) - 2009 - 2017\Various - Electrostorm Volume 3 (OUT 544) - 2012\16 Sternenkinder.wav
     Peak level 97.1 %
     Extraction speed 6.4 X
     Track quality 100.0 %
     Test CRC 6F3C3905
     Copy CRC 6F3C3905
     Accurately ripped (confidence 5)  [1C9F4388]  (AR v2)
     Copy OK
Track 17
     Filename D:\РАЗДАЧИ!!!!\VA - Electrostorm Vol. 1 - 8 (8CD) - 2009 - 2017\Various - Electrostorm Volume 3 (OUT 544) - 2012\17 Rituals.wav
     Peak level 94.9 %
     Extraction speed 9.6 X
     Track quality 100.0 %
     Test CRC 343DE43D
     Copy CRC 343DE43D
     Accurately ripped (confidence 5)  [040446BD]  (AR v2)
     Copy OK
Track 18
     Filename D:\РАЗДАЧИ!!!!\VA - Electrostorm Vol. 1 - 8 (8CD) - 2009 - 2017\Various - Electrostorm Volume 3 (OUT 544) - 2012\18 Wild Girls.wav
     Peak level 97.0 %
     Extraction speed 10.0 X
     Track quality 100.0 %
     Test CRC 47598B37
     Copy CRC 47598B37
     Accurately ripped (confidence 5)  [69AEC21A]  (AR v2)
     Copy OK
Track 19
     Filename D:\РАЗДАЧИ!!!!\VA - Electrostorm Vol. 1 - 8 (8CD) - 2009 - 2017\Various - Electrostorm Volume 3 (OUT 544) - 2012\19 All Ctrl.wav
     Peak level 94.1 %
     Extraction speed 9.9 X
     Track quality 100.0 %
     Test CRC 2D2FF1F9
     Copy CRC 2D2FF1F9
     Accurately ripped (confidence 5)  [C85F7803]  (AR v2)
     Copy OK
All tracks accurately ripped
No errors occurred
End of status report
---- CUETools DB Plugin V2.1.6
[CTDB TOCID: vkjuX8x8kofQRRxyKcdiqMzrPsg-] found
Submit result: vkjuX8x8kofQRRxyKcdiqMzrPsg- has been confirmed
Track | CTDB Status
  1   | (8/8) Accurately ripped
  2   | (8/8) Accurately ripped
  3   | (8/8) Accurately ripped
  4   | (8/8) Accurately ripped
  5   | (8/8) Accurately ripped
  6   | (8/8) Accurately ripped
  7   | (8/8) Accurately ripped
  8   | (8/8) Accurately ripped
  9   | (8/8) Accurately ripped
 10   | (8/8) Accurately ripped
 11   | (8/8) Accurately ripped
 12   | (8/8) Accurately ripped
 13   | (8/8) Accurately ripped
 14   | (8/8) Accurately ripped
 15   | (8/8) Accurately ripped
 16   | (8/8) Accurately ripped
 17   | (8/8) Accurately ripped
 18   | (8/8) Accurately ripped
 19   | (8/8) Accurately ripped
==== Log checksum 926C07CB6C8992DCDC5629E834825C37689161DA14240E6E3D5FE972AC77EF13 ====
   
Код:
REM GENRE "EBM, Industrial, Electro, Synth-pop"
REM DATE 2012
REM DISCID 04123A13
REM COMMENT "ExactAudioCopy v1.3"
PERFORMER "Various Artists"
TITLE "Electrostorm Volume 3 (OUT 544)"
REM COMPOSER ""
FILE "01 Anders Sein.wav" WAVE
  TRACK 01 AUDIO
    TITLE "Anders Sein"
    PERFORMER "Blutengel"
    REM COMPOSER ""
    INDEX 01 00:00:00
FILE "02 High Like The Angels.wav" WAVE
  TRACK 02 AUDIO
    TITLE "High Like The Angels"
    PERFORMER "Alpha Point"
    REM COMPOSER ""
    INDEX 01 00:00:00
FILE "03 Memories (Edit).wav" WAVE
  TRACK 03 AUDIO
    TITLE "Memories (Edit)"
    PERFORMER "Chrom"
    REM COMPOSER ""
    INDEX 01 00:00:00
FILE "04 Hysteria (Stripped Down).wav" WAVE
  TRACK 04 AUDIO
    TITLE "Hysteria (Stripped Down)"
    PERFORMER "Kaleid"
    REM COMPOSER ""
    INDEX 01 00:00:00
FILE "05 Lichterloh.wav" WAVE
  TRACK 05 AUDIO
    TITLE "Lichterloh"
    PERFORMER "Pakt"
    REM COMPOSER ""
    INDEX 01 00:00:00
FILE "06 Hit The Streets.wav" WAVE
  TRACK 06 AUDIO
    TITLE "Hit The Streets"
    PERFORMER "Aesthetic Perfection"
    REM COMPOSER ""
    INDEX 01 00:00:00
FILE "07 Collider.wav" WAVE
  TRACK 07 AUDIO
    TITLE "Collider"
    PERFORMER "Formalin"
    REM COMPOSER ""
    INDEX 01 00:00:00
FILE "08 Sidewalk Sinner.wav" WAVE
  TRACK 08 AUDIO
    TITLE "Sidewalk Sinner"
    PERFORMER "Dive"
    REM COMPOSER ""
    INDEX 01 00:00:00
FILE "09 Nightglory.wav" WAVE
  TRACK 09 AUDIO
    TITLE "Nightglory"
    PERFORMER "Kirlian Camera"
    REM COMPOSER ""
    INDEX 01 00:00:00
FILE "10 Black Disco Ball.wav" WAVE
  TRACK 10 AUDIO
    TITLE "Black Disco Ball"
    PERFORMER "Auto-Auto"
    REM COMPOSER ""
    INDEX 01 00:00:00
FILE "11 Skip A Heartbeat.wav" WAVE
  TRACK 11 AUDIO
    TITLE "Skip A Heartbeat"
    PERFORMER "Javelynn"
    REM COMPOSER ""
    INDEX 01 00:00:00
FILE "12 Where Words Fail, Hate Speaks.wav" WAVE
  TRACK 12 AUDIO
    TITLE "Where Words Fail, Hate Speaks"
    PERFORMER "Hocico"
    REM COMPOSER ""
    INDEX 01 00:00:00
FILE "13 Glaubenskrieger.wav" WAVE
  TRACK 13 AUDIO
    TITLE "Glaubenskrieger"
    PERFORMER "Agonoize"
    REM COMPOSER ""
    INDEX 01 00:00:00
FILE "14 Second Face.wav" WAVE
  TRACK 14 AUDIO
    TITLE "Second Face"
    PERFORMER "Gecko Sector"
    REM COMPOSER ""
    INDEX 01 00:00:00
FILE "15 Beim Ersten Mal tat’s Nicht Weh.wav" WAVE
  TRACK 15 AUDIO
    TITLE "Beim Ersten Mal tat’s Nicht Weh"
    PERFORMER "Jager 90"
    REM COMPOSER ""
    INDEX 01 00:00:00
FILE "16 Sternenkinder.wav" WAVE
  TRACK 16 AUDIO
    TITLE "Sternenkinder"
    PERFORMER "Cephalgy"
    REM COMPOSER ""
    INDEX 01 00:00:00
FILE "17 Rituals.wav" WAVE
  TRACK 17 AUDIO
    TITLE "Rituals"
    PERFORMER "God Module"
    REM COMPOSER ""
    INDEX 01 00:00:00
FILE "18 Wild Girls.wav" WAVE
  TRACK 18 AUDIO
    TITLE "Wild Girls"
    PERFORMER "Amduscia"
    REM COMPOSER ""
    INDEX 01 00:00:00
FILE "19 All Ctrl.wav" WAVE
  TRACK 19 AUDIO
    TITLE "All Ctrl"
    PERFORMER "Forgotten Sunrise"
    REM COMPOSER ""
    INDEX 01 00:00:00
 
[/spoiler]
Код:
-----------------------
DON'T MODIFY THIS FILE
-----------------------
PERFORMER: auCDtect Task Manager, ver. 1.6.0 RC1 build 1.6.0.1
Copyright (c) 2008-2010 y-soft. All rights reserved
[url=http://y-soft.org]http://y-soft.org[/url]
ANALYZER: auCDtect: CD records authenticity detector, version 0.8.2
Copyright (c) 2004 Oleg Berngardt. All rights reserved.
Copyright (c) 2004 Alexander Djourik. All rights reserved.
FILE: 01 Anders Sein.flac
  Size: 34548707 Hash: A9F2500CF57BA54792A40BB0D98AAD14 Accuracy: -m0
  Conclusion: CDDA 100%
  Signature: A696EB955FAD301CC81EE55FAC7C9D56515219DB
FILE: 02 High Like The Angels.flac
  Size: 26657024 Hash: 080A7DE1455A0630E9E441568F419710 Accuracy: -m0
  Conclusion: CDDA 100%
  Signature: 2B635DCC40357FCC55CA18009E04154295228F2A
FILE: 03 Memories (Edit).flac
  Size: 29264006 Hash: 013B8BAD253D688BA647FCF64AF8509F Accuracy: -m0
  Conclusion: CDDA 100%
  Signature: EEF19C92A64FAD1B7BC24DDEB107ABB7AD110D70
FILE: 04 Hysteria (Stripped Down).flac
  Size: 31570524 Hash: A43C102AB28DAE25ABB813DE206C59B1 Accuracy: -m0
  Conclusion: CDDA 100%
  Signature: 55F6F846F099CF86EB9777B6F6773D8D86A0CC06
FILE: 05 Lichterloh.flac
  Size: 32664916 Hash: 1AD5F8A1953B5B87075D635C919E219B Accuracy: -m0
  Conclusion: CDDA 100%
  Signature: BA64325C3B80230D833A81E0FC8B88746DEE32D6
FILE: 06 Hit The Streets.flac
  Size: 20221402 Hash: E6AC711306FADEC20EA5936BDB586F6F Accuracy: -m0
  Conclusion: CDDA 100%
  Signature: 1F0511B2577F5AA278C091795300118333FF81B4
FILE: 07 Collider.flac
  Size: 28092678 Hash: 43B37FD58A1E3F48B162D29AF4A741DA Accuracy: -m0
  Conclusion: CDDA 100%
  Signature: A9AF79A9BDF1DA7CAD8C4D08A581F90270F7776D
FILE: 08 Sidewalk Sinner.flac
  Size: 23098299 Hash: 0BFCA1AC4A843EF8B56A597D7A626F86 Accuracy: -m0
  Conclusion: CDDA 100%
  Signature: 61D8FBF5AB0913DDCC08C3C350DCF107A713DE9F
FILE: 09 Nightglory.flac
  Size: 25062370 Hash: ABD9F1D22957F1B6DB477A13CAEDA950 Accuracy: -m0
  Conclusion: CDDA 100%
  Signature: A0F318F52CE778FDA7CC0538F749F7ED35026296
FILE: 10 Black Disco Ball.flac
  Size: 24506338 Hash: 3C9113D0BCFB6572910C5FA327E77135 Accuracy: -m0
  Conclusion: CDDA 100%
  Signature: 69F2940FA84A56CFF76894BBDA37B9546A2AF25A
FILE: 11 Skip A Heartbeat.flac
  Size: 27946092 Hash: DD94D48E1E56BAC4F85ED5D0185EE9B8 Accuracy: -m0
  Conclusion: MPEG 95%
  Signature: EC07E87819DF1B2FE1B3AA68EC61D6734E251DF9
FILE: 12 Where Words Fail, Hate Speaks.flac
  Size: 33973192 Hash: 5FAB504C3372D63FFD81CD1AA3A9DF24 Accuracy: -m0
  Conclusion: CDDA 100%
  Signature: C4EFAD9F733CF4B1BC9254696AF644CFE50077C4
FILE: 13 Glaubenskrieger.flac
  Size: 32230253 Hash: 28789B515B201EC7BE4639AE6EFAA111 Accuracy: -m0
  Conclusion: CDDA 99%
  Signature: 6870161E4DC5C6D7C87D887EDBD304D846B761E8
FILE: 14 Second Face.flac
  Size: 38187197 Hash: 46BD8E55CF34A1EF8E84557E3727CC1D Accuracy: -m0
  Conclusion: CDDA 100%
  Signature: 86360F95F43D35345333F5B9FA8EEF9803B4B83F
FILE: 15 Beim Ersten Mal tat’s Nicht Weh.flac
  Size: 24828408 Hash: F409FD605C96522544FD5806F834108E Accuracy: -m0
  Conclusion: CDDA 100%
  Signature: C5A97C4DED24BEAED6E197FDD7B17C9E8B926D9C
FILE: 16 Sternenkinder.flac
  Size: 30085823 Hash: BA508DEEA74E38B9110A5BF3A7B15C1A Accuracy: -m0
  Conclusion: CDDA 100%
  Signature: D108FB48AA7048370D198441199F90BAC13F6E41
FILE: 17 Rituals.flac
  Size: 32505191 Hash: 8F750721B0209E174F18727AFA2500F2 Accuracy: -m0
  Conclusion: CDDA 100%
  Signature: C17666A693EF9FF0F9D610CCAE20D771290CA55B
FILE: 18 Wild Girls.flac
  Size: 37355040 Hash: D8D70095BCCE150E82AE6F24C97743E9 Accuracy: -m0
  Conclusion: CDDA 100%
  Signature: 18FFEB30077FE062A35144CE88542F94CA50A04E
FILE: 19 All Ctrl.flac
  Size: 30148057 Hash: 8EF53E611A99B4D8D5812BA5E46515CA Accuracy: -m0
  Conclusion: CDDA 100%
  Signature: 11519068B9BF265B81DA774E942A7A5314153615
 
[/spoiler]
Код:
foobar2000 1.2.3 / Замер динамического диапазона (DR) 1.1.1
Дата отчёта: 2017-12-05 23:14:08
--------------------------------------------------------------------------------
Анализ:   Aesthetic Perfection / Electrostorm Volume 3 (OUT 544) (1)
          Agonoize / Electrostorm Volume 3 (OUT 544) (2)
          Alpha Point / Electrostorm Volume 3 (OUT 544) (3)
          Amduscia / Electrostorm Volume 3 (OUT 544) (4)
          Auto-Auto / Electrostorm Volume 3 (OUT 544) (5)
          Blutengel / Electrostorm Volume 3 (OUT 544) (6)
          Cephalgy / Electrostorm Volume 3 (OUT 544) (7)
          Chrom / Electrostorm Volume 3 (OUT 544) (8)
          Dive / Electrostorm Volume 3 (OUT 544) (9)
          Forgotten Sunrise / Electrostorm Volume 3 (OUT 544) (10)
          Formalin / Electrostorm Volume 3 (OUT 544) (11)
          Gecko Sector / Electrostorm Volume 3 (OUT 544) (12)
          God Module / Electrostorm Volume 3 (OUT 544) (13)
          Hocico / Electrostorm Volume 3 (OUT 544) (14)
          Jager 90 / Electrostorm Volume 3 (OUT 544) (15)
          Javelynn / Electrostorm Volume 3 (OUT 544) (16)
          Kaleid / Electrostorm Volume 3 (OUT 544) (17)
          Kirlian Camera / Electrostorm Volume 3 (OUT 544) (18)
          Pakt / Electrostorm Volume 3 (OUT 544) (19)
--------------------------------------------------------------------------------
DR         Пики          RMS        Продолжительность трека
--------------------------------------------------------------------------------
DR4       -0.26 дБ    -6.29 дБ      4:21 06-Hit The Streets
DR6       -0.60 дБ    -8.12 дБ      4:01 13-Glaubenskrieger
DR6       -0.26 дБ    -7.75 дБ      3:36 02-High Like The Angels
DR5       -0.26 дБ    -6.42 дБ      4:32 18-Wild Girls
DR5       -0.15 дБ    -7.94 дБ      3:41 10-Black Disco Ball
DR5       -0.17 дБ    -6.88 дБ      4:43 01-Anders Sein
DR5       -0.25 дБ    -7.04 дБ      4:00 16-Sternenkinder
DR6       -0.25 дБ    -7.64 дБ      3:59 03-Memories (Edit)
DR6       -0.24 дБ    -7.17 дБ      3:28 08-Sidewalk Sinner
DR4       -0.52 дБ    -5.81 дБ      3:56 19-All Ctrl
DR5       -0.23 дБ    -7.00 дБ      3:52 07-Collider
DR6       -0.75 дБ    -8.01 дБ      5:12 14-Second Face
DR5       -0.45 дБ    -6.60 дБ      4:15 17-Rituals
DR6       -0.20 дБ    -7.96 дБ      4:26 12-Where Words Fail, Hate Speaks
DR6       -0.24 дБ    -7.44 дБ      3:32 15-Beim Ersten Mal tat’s Nicht Weh
DR6       -0.33 дБ    -7.11 дБ      4:07 11-Skip A Heartbeat
DR5       -0.20 дБ    -6.67 дБ      4:23 04-Hysteria (Stripped Down)
DR5       -0.24 дБ    -7.03 дБ      3:30 09-Nightglory
DR5       -0.25 дБ    -7.13 дБ      4:12 05-Lichterloh
--------------------------------------------------------------------------------
Количество треков: 19
Реальные значения DR: DR5
Частота:  44100 Гц
Каналов:  2
Разрядность:   16
Битрейт:  1035 кбит/с
Кодек:   FLAC
================================================================================
 
[/spoiler]
[/spoiler][/spoiler]
#777Жанр: EBM, Industrial, Electro
Страна-производитель диска: Germany
Год выпуска диска: 2013
Дата выхода оригинального издания: 2013
Тип издания: CD, Compilation
Издатель (лейбл): Out Of Line
Номер по каталогу: OUT 612
Продолжительность: 01:14:27
Источник (релизер): Собственный рип
Наличие сканов в содержимом раздачи: да, PNG 600dpiТреклист
01. Suicide Commando – Unterwelt [05:01]
02. Hocico – Polarity [03:36]
03. Combichrist – Gimme Deathrace [03:52]
04. Funker Vogt – Hard Way [04:18]
05. Agonoize – Dafur [04:14]
06. Solitary Experiments – Trial And Error (Splitter RMX) [04:07]
07. Blutengel – When I Feel You [04:14]
08. Melotron – Stuck In The Mirror [04:19]
09. Auto-Auto – Weekender [03:57]
10. Too Dead To Die – The War Will Never End [03:11]
11. The Klinik – Mindswitch [04:11]
12. The Juggernauts – Infected [05:23]
13. Formalin – This Isn't Love (2013 Rework) [04:54]
14. Pankow – Crash And Burn [04:49]
15. Aesthetic Perfection – A Nice Place To Visit (Formalin Remix) [04:30]
16. Amduscia – Filofobia [05:39]
17. Rummelsnuff – Daddy Cool [04:06]
Код:
Exact Audio Copy V1.3 from 2. September 2016
EAC extraction logfile from 26. November 2017, 0:16
Various Artists / Electrostorm Volume 4 (OUT 612)
Used drive  : ASUS    BW-16D1HT   Adapter: 1  ID: 0
Read mode               : Secure
Utilize accurate stream : Yes
Defeat audio cache      : Yes
Make use of C2 pointers : No
Read offset correction                      : 6
Overread into Lead-In and Lead-Out          : No
Fill up missing offset samples with silence : Yes
Delete leading and trailing silent blocks   : No
Null samples used in CRC calculations       : Yes
Used interface                              : Native Win32 interface for Win NT & 2000
Gap handling                                : Appended to previous track
Used output format              : User Defined Encoder
Selected bitrate                : 1024 kBit/s
Quality                         : High
Add ID3 tag                     : No
Command line compressor         : C:\Program Files (x86)\Exact Audio Copy\FLAC\FLAC.EXE
Additional command line options : -T "COMMENT=Ripped by SergeyJD for rutracker.org" -8 -V -T "ARTIST=%artist%" -T "TITLE=%title%" -T "ALBUM=%albumtitle%" -T "DATE=%year%" -T "TRACKNUMBER=%tracknr%" -T "GENRE=%genre%" %source%
TOC of the extracted CD
     Track |   Start  |  Length  | Start sector | End sector
    ---------------------------------------------------------
        1  |  0:00.00 |  5:01.08 |         0    |    22582
        2  |  5:01.08 |  3:36.01 |     22583    |    38783
        3  |  8:37.09 |  3:52.57 |     38784    |    56240
        4  | 12:29.66 |  4:18.11 |     56241    |    75601
        5  | 16:48.02 |  4:14.16 |     75602    |    94667
        6  | 21:02.18 |  4:07.55 |     94668    |   113247
        7  | 25:09.73 |  4:14.71 |    113248    |   132368
        8  | 29:24.69 |  4:19.10 |    132369    |   151803
        9  | 33:44.04 |  3:57.16 |    151804    |   169594
       10  | 37:41.20 |  3:11.02 |    169595    |   183921
       11  | 40:52.22 |  4:11.15 |    183922    |   202761
       12  | 45:03.37 |  5:23.27 |    202762    |   227013
       13  | 50:26.64 |  4:54.02 |    227014    |   249065
       14  | 55:20.66 |  4:49.21 |    249066    |   270761
       15  | 60:10.12 |  4:30.50 |    270762    |   291061
       16  | 64:40.62 |  5:39.56 |    291062    |   316542
       17  | 70:20.43 |  4:06.62 |    316543    |   335054
Track  1
     Filename D:\РАЗДАЧИ!!!!\VA - Electrostorm Vol. 1 - 8 (8CD) - 2009 - 2017\Various - Electrostorm Volume 4 (OUT 612) - 2013\01 Unterwelt.wav
     Pre-gap length  0:00:02.00
     Peak level 94.2 %
     Extraction speed 1.2 X
     Track quality 99.9 %
     Test CRC D93631EE
     Copy CRC D93631EE
     Accurately ripped (confidence 8)  [C827CDEA]  (AR v2)
     Copy OK
Track  2
     Filename D:\РАЗДАЧИ!!!!\VA - Electrostorm Vol. 1 - 8 (8CD) - 2009 - 2017\Various - Electrostorm Volume 4 (OUT 612) - 2013\02 Polarity.wav
     Peak level 96.3 %
     Extraction speed 1.3 X
     Track quality 100.0 %
     Test CRC 235861FD
     Copy CRC 235861FD
     Accurately ripped (confidence 8)  [12F593F9]  (AR v2)
     Copy OK
Track  3
     Filename D:\РАЗДАЧИ!!!!\VA - Electrostorm Vol. 1 - 8 (8CD) - 2009 - 2017\Various - Electrostorm Volume 4 (OUT 612) - 2013\03 Gimme Deathrace.wav
     Pre-gap length  0:00:00.17
     Peak level 96.3 %
     Extraction speed 1.3 X
     Track quality 99.9 %
     Test CRC B8225F68
     Copy CRC B8225F68
     Accurately ripped (confidence 8)  [76B4A5E9]  (AR v2)
     Copy OK
Track  4
     Filename D:\РАЗДАЧИ!!!!\VA - Electrostorm Vol. 1 - 8 (8CD) - 2009 - 2017\Various - Electrostorm Volume 4 (OUT 612) - 2013\04 Hard Way.wav
     Pre-gap length  0:00:00.58
     Peak level 93.4 %
     Extraction speed 1.5 X
     Track quality 100.0 %
     Test CRC 0F9796F0
     Copy CRC 0F9796F0
     Accurately ripped (confidence 8)  [BCCDA6FF]  (AR v2)
     Copy OK
Track  5
     Filename D:\РАЗДАЧИ!!!!\VA - Electrostorm Vol. 1 - 8 (8CD) - 2009 - 2017\Various - Electrostorm Volume 4 (OUT 612) - 2013\05 Dafur.wav
     Pre-gap length  0:00:01.00
     Peak level 96.3 %
     Extraction speed 1.6 X
     Track quality 100.0 %
     Test CRC 765A8867
     Copy CRC 765A8867
     Accurately ripped (confidence 8)  [14EE50E6]  (AR v2)
     Copy OK
Track  6
     Filename D:\РАЗДАЧИ!!!!\VA - Electrostorm Vol. 1 - 8 (8CD) - 2009 - 2017\Various - Electrostorm Volume 4 (OUT 612) - 2013\06 Trial And Error (Splitter Rmx).wav
     Peak level 96.3 %
     Extraction speed 1.7 X
     Track quality 100.0 %
     Test CRC 21142B83
     Copy CRC 21142B83
     Accurately ripped (confidence 8)  [48114F4A]  (AR v2)
     Copy OK
Track  7
     Filename D:\РАЗДАЧИ!!!!\VA - Electrostorm Vol. 1 - 8 (8CD) - 2009 - 2017\Various - Electrostorm Volume 4 (OUT 612) - 2013\07 When I Feel You.wav
     Pre-gap length  0:00:00.44
     Peak level 96.3 %
     Extraction speed 1.6 X
     Track quality 99.9 %
     Test CRC 8A815DF8
     Copy CRC 8A815DF8
     Accurately ripped (confidence 8)  [33CE6FC1]  (AR v2)
     Copy OK
Track  8
     Filename D:\РАЗДАЧИ!!!!\VA - Electrostorm Vol. 1 - 8 (8CD) - 2009 - 2017\Various - Electrostorm Volume 4 (OUT 612) - 2013\08 Stuck In The Mirror.wav
     Pre-gap length  0:00:01.00
     Peak level 96.3 %
     Extraction speed 1.9 X
     Track quality 100.0 %
     Test CRC 2F61FFD3
     Copy CRC 2F61FFD3
     Accurately ripped (confidence 8)  [8C3441D9]  (AR v2)
     Copy OK
Track  9
     Filename D:\РАЗДАЧИ!!!!\VA - Electrostorm Vol. 1 - 8 (8CD) - 2009 - 2017\Various - Electrostorm Volume 4 (OUT 612) - 2013\09 Weekender.wav
     Peak level 95.8 %
     Extraction speed 1.9 X
     Track quality 100.0 %
     Test CRC 5925ADB8
     Copy CRC 5925ADB8
     Accurately ripped (confidence 8)  [C28FAD41]  (AR v2)
     Copy OK
Track 10
     Filename D:\РАЗДАЧИ!!!!\VA - Electrostorm Vol. 1 - 8 (8CD) - 2009 - 2017\Various - Electrostorm Volume 4 (OUT 612) - 2013\10 The War Will Never End.wav
     Pre-gap length  0:00:00.69
     Peak level 96.3 %
     Extraction speed 1.9 X
     Track quality 100.0 %
     Test CRC 1D731CBC
     Copy CRC 1D731CBC
     Accurately ripped (confidence 8)  [6189E9C3]  (AR v2)
     Copy OK
Track 11
     Filename D:\РАЗДАЧИ!!!!\VA - Electrostorm Vol. 1 - 8 (8CD) - 2009 - 2017\Various - Electrostorm Volume 4 (OUT 612) - 2013\11 Mindswitch.wav
     Pre-gap length  0:00:01.00
     Peak level 96.3 %
     Extraction speed 2.0 X
     Track quality 100.0 %
     Test CRC 6EAE6AF3
     Copy CRC 6EAE6AF3
     Accurately ripped (confidence 7)  [EA21E886]  (AR v2)
     Copy OK
Track 12
     Filename D:\РАЗДАЧИ!!!!\VA - Electrostorm Vol. 1 - 8 (8CD) - 2009 - 2017\Various - Electrostorm Volume 4 (OUT 612) - 2013\12 Infected.wav
     Peak level 94.4 %
     Extraction speed 2.0 X
     Track quality 99.9 %
     Test CRC FB4D0B34
     Copy CRC FB4D0B34
     Accurately ripped (confidence 7)  [632549F1]  (AR v2)
     Copy OK
Track 13
     Filename D:\РАЗДАЧИ!!!!\VA - Electrostorm Vol. 1 - 8 (8CD) - 2009 - 2017\Various - Electrostorm Volume 4 (OUT 612) - 2013\13 This Isn’t Love (2013 Rework).wav
     Peak level 91.9 %
     Extraction speed 2.2 X
     Track quality 100.0 %
     Test CRC 58A8B126
     Copy CRC 58A8B126
     Accurately ripped (confidence 8)  [0A189998]  (AR v2)
     Copy OK
Track 14
     Filename D:\РАЗДАЧИ!!!!\VA - Electrostorm Vol. 1 - 8 (8CD) - 2009 - 2017\Various - Electrostorm Volume 4 (OUT 612) - 2013\14 Crash And Burn.wav
     Peak level 100.0 %
     Extraction speed 2.3 X
     Track quality 100.0 %
     Test CRC 80944AD9
     Copy CRC 80944AD9
     Accurately ripped (confidence 8)  [0F5DF018]  (AR v2)
     Copy OK
Track 15
     Filename D:\РАЗДАЧИ!!!!\VA - Electrostorm Vol. 1 - 8 (8CD) - 2009 - 2017\Various - Electrostorm Volume 4 (OUT 612) - 2013\15 A Nice Place To Visit (Formalin Remix).wav
     Pre-gap length  0:00:00.22
     Peak level 96.3 %
     Extraction speed 2.4 X
     Track quality 100.0 %
     Test CRC 5F23DD33
     Copy CRC 5F23DD33
     Accurately ripped (confidence 7)  [5BCE465D]  (AR v2)
     Copy OK
Track 16
     Filename D:\РАЗДАЧИ!!!!\VA - Electrostorm Vol. 1 - 8 (8CD) - 2009 - 2017\Various - Electrostorm Volume 4 (OUT 612) - 2013\16 Filofobia.wav
     Pre-gap length  0:00:01.00
     Peak level 90.9 %
     Extraction speed 2.5 X
     Track quality 100.0 %
     Test CRC 050214D8
     Copy CRC 050214D8
     Accurately ripped (confidence 8)  [8A9DB0BD]  (AR v2)
     Copy OK
Track 17
     Filename D:\РАЗДАЧИ!!!!\VA - Electrostorm Vol. 1 - 8 (8CD) - 2009 - 2017\Various - Electrostorm Volume 4 (OUT 612) - 2013\17 Daddy Cool.wav
     Pre-gap length  0:00:01.40
     Peak level 93.9 %
     Extraction speed 2.5 X
     Track quality 100.0 %
     Test CRC DBFDBE73
     Copy CRC DBFDBE73
     Accurately ripped (confidence 8)  [CD403267]  (AR v2)
     Copy OK
All tracks accurately ripped
No errors occurred
End of status report
---- CUETools DB Plugin V2.1.6
[CTDB TOCID: dBi626bzNpVWaYSnPN8T5CJS0pk-] found
Submit result: dBi626bzNpVWaYSnPN8T5CJS0pk- has been confirmed
Track | CTDB Status
  1   | (8/8) Accurately ripped
  2   | (8/8) Accurately ripped
  3   | (8/8) Accurately ripped
  4   | (8/8) Accurately ripped
  5   | (8/8) Accurately ripped
  6   | (8/8) Accurately ripped
  7   | (8/8) Accurately ripped
  8   | (8/8) Accurately ripped
  9   | (8/8) Accurately ripped
 10   | (8/8) Accurately ripped
 11   | (7/8) Accurately ripped
 12   | (7/8) Accurately ripped
 13   | (8/8) Accurately ripped
 14   | (8/8) Accurately ripped
 15   | (7/8) Accurately ripped
 16   | (8/8) Accurately ripped
 17   | (8/8) Accurately ripped
==== Log checksum 8FE4622147F37FAF6B1D675121043B1F33AB081A6BBA5C4475379D759571AFA4 ====
   
Код:
REM GENRE "EBM, Industrial, Electro, Synth-pop"
REM DATE 2013
REM DISCID C5117311
REM COMMENT "ExactAudioCopy v1.3"
PERFORMER "Various Artists"
TITLE "Electrostorm Volume 4 (OUT 612)"
REM COMPOSER ""
FILE "01 Unterwelt.wav" WAVE
  TRACK 01 AUDIO
    TITLE "Unterwelt"
    PERFORMER "Suicide Commando"
    REM COMPOSER ""
    INDEX 01 00:00:00
FILE "02 Polarity.wav" WAVE
  TRACK 02 AUDIO
    TITLE "Polarity"
    PERFORMER "Hocico"
    REM COMPOSER ""
    INDEX 01 00:00:00
  TRACK 03 AUDIO
    TITLE "Gimme Deathrace"
    PERFORMER "Combichrist"
    REM COMPOSER ""
    INDEX 00 03:35:59
FILE "03 Gimme Deathrace.wav" WAVE
    INDEX 01 00:00:00
  TRACK 04 AUDIO
    TITLE "Hard Way"
    PERFORMER "Funker Vogt"
    REM COMPOSER ""
    INDEX 00 03:51:74
FILE "04 Hard Way.wav" WAVE
    INDEX 01 00:00:00
  TRACK 05 AUDIO
    TITLE "Dafur"
    PERFORMER "Agonoize"
    REM COMPOSER ""
    INDEX 00 04:17:11
FILE "05 Dafur.wav" WAVE
    INDEX 01 00:00:00
FILE "06 Trial And Error (Splitter Rmx).wav" WAVE
  TRACK 06 AUDIO
    TITLE "Trial And Error (Splitter Rmx)"
    PERFORMER "Solitary Experiments"
    REM COMPOSER ""
    INDEX 01 00:00:00
  TRACK 07 AUDIO
    TITLE "When I Feel You"
    PERFORMER "Blutengel"
    REM COMPOSER ""
    INDEX 00 04:07:11
FILE "07 When I Feel You.wav" WAVE
    INDEX 01 00:00:00
  TRACK 08 AUDIO
    TITLE "Stuck In The Mirror"
    PERFORMER "Melotron"
    REM COMPOSER ""
    INDEX 00 04:13:71
FILE "08 Stuck In The Mirror.wav" WAVE
    INDEX 01 00:00:00
FILE "09 Weekender.wav" WAVE
  TRACK 09 AUDIO
    TITLE "Weekender"
    PERFORMER "Auto-Auto"
    REM COMPOSER ""
    INDEX 01 00:00:00
  TRACK 10 AUDIO
    TITLE "The War Will Never End"
    PERFORMER "Too Dead To Die"
    REM COMPOSER ""
    INDEX 00 03:56:22
FILE "10 The War Will Never End.wav" WAVE
    INDEX 01 00:00:00
  TRACK 11 AUDIO
    TITLE "Mindswitch"
    PERFORMER "The Klinik"
    REM COMPOSER ""
    INDEX 00 03:10:02
FILE "11 Mindswitch.wav" WAVE
    INDEX 01 00:00:00
FILE "12 Infected.wav" WAVE
  TRACK 12 AUDIO
    TITLE "Infected"
    PERFORMER "The Juggernauts"
    REM COMPOSER ""
    INDEX 01 00:00:00
FILE "13 This Isn’t Love (2013 Rework).wav" WAVE
  TRACK 13 AUDIO
    TITLE "This Isn’t Love (2013 Rework)"
    PERFORMER "Formalin"
    REM COMPOSER ""
    INDEX 01 00:00:00
FILE "14 Crash And Burn.wav" WAVE
  TRACK 14 AUDIO
    TITLE "Crash And Burn"
    PERFORMER "Pankow"
    REM COMPOSER ""
    INDEX 01 00:00:00
  TRACK 15 AUDIO
    TITLE "A Nice Place To Visit (Formalin Remix)"
    PERFORMER "Aesthetic Perfection"
    REM COMPOSER ""
    INDEX 00 04:48:74
FILE "15 A Nice Place To Visit (Formalin Remix).wav" WAVE
    INDEX 01 00:00:00
  TRACK 16 AUDIO
    TITLE "Filofobia"
    PERFORMER "Amduscia"
    REM COMPOSER ""
    INDEX 00 04:29:50
FILE "16 Filofobia.wav" WAVE
    INDEX 01 00:00:00
  TRACK 17 AUDIO
    TITLE "Daddy Cool"
    PERFORMER "Rummelsnuff"
    REM COMPOSER ""
    INDEX 00 05:38:16
FILE "17 Daddy Cool.wav" WAVE
    INDEX 01 00:00:00
 
[/spoiler]
Код:
-----------------------
DON'T MODIFY THIS FILE
-----------------------
PERFORMER: auCDtect Task Manager, ver. 1.6.0 RC1 build 1.6.0.1
Copyright (c) 2008-2010 y-soft. All rights reserved
[url=http://y-soft.org]http://y-soft.org[/url]
ANALYZER: auCDtect: CD records authenticity detector, version 0.8.2
Copyright (c) 2004 Oleg Berngardt. All rights reserved.
Copyright (c) 2004 Alexander Djourik. All rights reserved.
FILE: 01 Unterwelt.flac
  Size: 39082729 Hash: 33B71BC69BF5D2AC8AD9426AAC6415F7 Accuracy: -m0
  Conclusion: CDDA 100%
  Signature: 8D158A1136D636565E61914B775968B6DF1D62CA
FILE: 02 Polarity.flac
  Size: 31262458 Hash: 0EE59E14A61FEA0A3A0D9295B38DB2B4 Accuracy: -m0
  Conclusion: CDDA 100%
  Signature: 79C60DA8E34FDC9A4CC91E77597B502F11FC43E4
FILE: 03 Gimme Deathrace.flac
  Size: 31493406 Hash: 1046FDBA8D6CB556291D74E3948458B4 Accuracy: -m0
  Conclusion: CDDA 100%
  Signature: EC5D9A0FAC1DA7E5FC8F24F4F09CD12DD48C2A7C
FILE: 04 Hard Way.flac
  Size: 31430566 Hash: 67699F1BD6FEDD55D2360F66CF685C3B Accuracy: -m0
  Conclusion: CDDA 99%
  Signature: 57EA379D0663987FE454C64F9EFA466613949722
FILE: 05 Dafur.flac
  Size: 34813863 Hash: 947D1BE8CDAC8A1461959BB6969D54CE Accuracy: -m0
  Conclusion: CDDA 100%
  Signature: 4B864C87D7635AD935CAE51B855C9ADA4C02BFC1
FILE: 06 Trial And Error (Splitter Rmx).flac
  Size: 31781971 Hash: CD3F278B125F1F17B29BC819D17A9C9C Accuracy: -m0
  Conclusion: CDDA 99%
  Signature: 3FEC67978560D041D9073A953A012FDE473E09EB
FILE: 07 When I Feel You.flac
  Size: 30870340 Hash: 8525C0888972720AF9FF0B1E831D0289 Accuracy: -m0
  Conclusion: CDDA 100%
  Signature: ABB92B08440D353457CE2F791FC872C1AE1CC40E
FILE: 08 Stuck In The Mirror.flac
  Size: 30345436 Hash: 1F209ECFA66BDC12EB3A0055E261353C Accuracy: -m0
  Conclusion: MPEG 95%
  Signature: 7C5A06821E8463C7678042512224C58E1AC9D3D6
FILE: 09 Weekender.flac
  Size: 28217940 Hash: 735763F5EDC9A6434D16B9DB5EB80F8F Accuracy: -m0
  Conclusion: MPEG 95%
  Signature: 39CAA5578242597FC97A23CA2308A9D926809FB7
FILE: 10 The War Will Never End.flac
  Size: 26117796 Hash: CBE68ACEB79801FF0302671F3B71C089 Accuracy: -m0
  Conclusion: CDDA 100%
  Signature: 0B84221C05CF8962A4D4A87E09BDEB04640210B7
FILE: 11 Mindswitch.flac
  Size: 29584394 Hash: 2AD328116AE5E0D92598B3BC3CD6B138 Accuracy: -m0
  Conclusion: CDDA 100%
  Signature: C10346D12F127C654F2A7A13430536425D6CDD13
FILE: 12 Infected.flac
  Size: 40835315 Hash: F5D05D44E1CEDBE00BAEA9440A1E0BEA Accuracy: -m0
  Conclusion: CDDA 100%
  Signature: DA43E52EA830A3E5DE6FB31F2A09B8806CB43871
FILE: 13 This Isn’t Love (2013 Rework).flac
  Size: 37023119 Hash: 03EF979159A27854D382253C18489D1E Accuracy: -m0
  Conclusion: CDDA 100%
  Signature: 069C924C766BEB555A8BFC3EB7CFE56EE5324D8B
FILE: 14 Crash And Burn.flac
  Size: 33754002 Hash: 0FEFDC70982641B84A9BFB7BE18F3EF4 Accuracy: -m0
  Conclusion: CDDA 100%
  Signature: 46D32CDE97A3448578C6DD56902408C5E8DFD07D
FILE: 15 A Nice Place To Visit (Formalin Remix).flac
  Size: 35254120 Hash: 419995ACB538E73C31FB2F87D74E7177 Accuracy: -m0
  Conclusion: CDDA 100%
  Signature: 0F5C9619BC189EFEB4F87EF37D7DB124BEB8F910
FILE: 16 Filofobia.flac
  Size: 51889695 Hash: 0B23386B284D0CBC31505A26DA4428EF Accuracy: -m0
  Conclusion: CDDA 100%
  Signature: C959E720B1E0868FEDCE5E891DE5754FD5316DEE
FILE: 17 Daddy Cool.flac
  Size: 28206931 Hash: 3D60953933DE17BAAD7D7A675EF3C73E Accuracy: -m0
  Conclusion: CDDA 100%
  Signature: 0C9ABC7A36B4C295EC6073EE379B9CE3D6DB8C19
 
[/spoiler]
Код:
foobar2000 1.2.3 / Замер динамического диапазона (DR) 1.1.1
Дата отчёта: 2017-12-05 23:14:43
--------------------------------------------------------------------------------
Анализ:   Aesthetic Perfection / Electrostorm Volume 4 (OUT 612) (1)
          Agonoize / Electrostorm Volume 4 (OUT 612) (2)
          Amduscia / Electrostorm Volume 4 (OUT 612) (3)
          Auto-Auto / Electrostorm Volume 4 (OUT 612) (4)
          Blutengel / Electrostorm Volume 4 (OUT 612) (5)
          Combichrist / Electrostorm Volume 4 (OUT 612) (6)
          Formalin / Electrostorm Volume 4 (OUT 612) (7)
          Funker Vogt / Electrostorm Volume 4 (OUT 612) (8)
          Hocico / Electrostorm Volume 4 (OUT 612) (9)
          Melotron / Electrostorm Volume 4 (OUT 612) (10)
          Pankow / Electrostorm Volume 4 (OUT 612) (11)
          Rummelsnuff / Electrostorm Volume 4 (OUT 612) (12)
          Solitary Experiments / Electrostorm Volume 4 (OUT 612) (13)
          Suicide Commando / Electrostorm Volume 4 (OUT 612) (14)
          The Juggernauts / Electrostorm Volume 4 (OUT 612) (15)
          The Klinik / Electrostorm Volume 4 (OUT 612) (16)
          Too Dead To Die / Electrostorm Volume 4 (OUT 612) (17)
--------------------------------------------------------------------------------
DR         Пики          RMS        Продолжительность трека
--------------------------------------------------------------------------------
DR5       -0.32 дБ    -5.64 дБ      4:31 15-A Nice Place To Visit (Formalin Remix)
DR5       -0.32 дБ    -5.97 дБ      4:14 05-Dafur
DR3       -0.83 дБ    -5.14 дБ      5:40 16-Filofobia
DR4       -0.37 дБ    -6.05 дБ      3:57 09-Weekender
DR5       -0.32 дБ    -6.46 дБ      4:15 07-When I Feel You
DR4       -0.32 дБ    -5.27 дБ      3:53 03-Gimme Deathrace
DR4       -0.73 дБ    -6.37 дБ      4:54 13-This Isn’t Love (2013 Rework)
DR4       -0.59 дБ    -6.05 дБ      4:18 04-Hard Way
DR4       -0.32 дБ    -5.81 дБ      3:36 02-Polarity
DR5       -0.32 дБ    -6.72 дБ      4:19 08-Stuck In The Mirror
DR6        0.00 дБ    -7.74 дБ      4:49 14-Crash And Burn
DR4       -0.54 дБ    -6.14 дБ      4:07 17-Daddy Cool
DR5       -0.32 дБ    -5.78 дБ      4:08 06-Trial And Error (Splitter Rmx)
DR4       -0.52 дБ    -5.86 дБ      5:01 01-Unterwelt
DR4       -0.50 дБ    -6.63 дБ      5:23 12-Infected
DR5       -0.32 дБ    -6.54 дБ      4:11 11-Mindswitch
DR5       -0.32 дБ    -5.85 дБ      3:11 10-The War Will Never End
--------------------------------------------------------------------------------
Количество треков: 17
Реальные значения DR: DR5
Частота:  44100 Гц
Каналов:  2
Разрядность:   16
Битрейт:  1093 кбит/с
Кодек:   FLAC
================================================================================
 
[/spoiler]
[/spoiler][/spoiler]

Релиз для:

Правила, инструкции, FAQ!!!
Торрент  Добавлен [26 июн 2020, 20:27] Скачать торрент Магнет ссылка
Скачать торрент
[ Размер 55.55 КБ / Просмотров 9 ]

Статус
Проверен 
 
Размер  6.03 ГБ
Приватный: Нет (DHT включён)
.torrent скачан  0
 


     Отправить личное сообщение
   
Страница 1 из 1
Показать сообщения за:  Поле сортировки  
Начать новую тему Ответить на тему


Сейчас этот форум просматривают: нет зарегистрированных пользователей и гости: 0


Вы не можете начинать темы
Вы не можете отвечать на сообщения
Вы не можете редактировать свои сообщения
Вы не можете удалять свои сообщения
Вы не можете добавлять вложения

Перейти:  
cron