Начать новую тему Ответить на тему
Статистика раздачи
Размер: 881.37 МБ | Добавлен: 26 июн 2020, 20:43 | Скачали: 0
Сидеров: 0  [0 байт/сек]    Личеров: 0  [0 байт/сек]
Пред. тема | След. тема 

Автор
Сообщение

СообщениеДобавлено: 26 июн 2020, 20:43 

Ответить с цитатой 

Eden Synthetic Corps ‎(ESC) ‎- Enhancer

Жанр: EBM, Electro, Industrial
Страна-производитель диска: Russia
Год издания: 2008
Издатель (лейбл): Gravitator Records
Номер по каталогу: GRR 089
Страна: Portugal
Аудиокодек: FLAC (*.flac)
Тип рипа: image+.cue
Битрейт аудио: lossless
Продолжительность: 01:07:10
Источник (релизер): Собственный рип
Наличие сканов в содержимом раздачи: да, PNG 600 dpi
Треклист:
01. Eden 0:41
02. Despise 4:43
03. Enhancer 6:01
04. Needle Catwalk 4:55
05. Heartware V2.0 3:40
06. Wrong Way 6:31
07. Waste Of Ammo 5:14
08. Totes Licht 5:12
09. Alpha Male 5:34
10. Architecture 4:49
11. Deathtrap Circus 4:15
12. Attention Whore 6:32
13. 0.26 (Bladefucked) 4:38
14. Reptile 4:32
Код:
Exact Audio Copy V0.99 prebeta 5 from 4. May 2009
Отчёт EAC об извлечении, выполненном 4. августа 2012, 17:43
ESC / Enhancer
Дисковод: PIONEER BD-RW   BDR-206   Adapter: 1  ID: 1
Режим чтения                 : Достоверность
Использование точного потока : Да
Отключение кэша аудио        : Да
Использование указателей C2  : Нет
Коррекция смещения при чтении                     : 667
Способность читать области Lead-in и Lead-out     : Нет
Заполнение пропущенных сэмплов тишиной            : Да
Удаление блоков с тишиной в начале и конце        : Нет
При вычислениях CRC использовались нулевые сэмплы : Да
Интерфейс                                         : Встроенный Win32-интерфейс для Win NT/2000
Выходной формат          : Пользовательский кодировщик
Выбранный битрейт        : 1024 kBit/s
Качество                 : Высокий
Добавление ID3-тэга      : Нет
Утилита сжатия           : C:\Program Files (x86)\Exact Audio Copy\FLAC\FLAC.EXE
Дополнительные параметры : -8 -V -T "ARTIST=%a" -T "TITLE=%t" -T "ALBUM=%g" -T "DATE=%y" -T "TRACKNUMBER=%n" -T "GENRE=%m" -T "COMMENT=%e" %s -o %d
TOC извлечённого CD
     Трек |   Старт  | Длительность | Начальный сектор | Конечный сектор
    ---------------------------------------------------------------------
       1  |  0:00.00 |    0:41.21   |           0      |       3095
       2  |  0:41.21 |    4:43.40   |        3096      |      24360
       3  |  5:24.61 |    6:01.00   |       24361      |      51435
       4  | 11:25.61 |    4:55.70   |       51436      |      73630
       5  | 16:21.56 |    3:40.45   |       73631      |      90175
       6  | 20:02.26 |    6:31.54   |       90176      |     119554
       7  | 26:34.05 |    5:14.11   |      119555      |     143115
       8  | 31:48.16 |    5:12.19   |      143116      |     166534
       9  | 37:00.35 |    5:34.03   |      166535      |     191587
      10  | 42:34.38 |    4:49.46   |      191588      |     213308
      11  | 47:24.09 |    4:15.12   |      213309      |     232445
      12  | 51:39.21 |    6:32.57   |      232446      |     261902
      13  | 58:12.03 |    4:38.69   |      261903      |     282821
      14  | 62:50.72 |    4:32.03   |      282822      |     303224
Характеристики диапазона извлечения и сообщения об ошибках
Выбранный диапазон
     Имя файла D:\РАЗДАЧИ!!!!\Eden Synthetic Corps [ESC] - Enhancer - 2008\ESC - Enhancer.wav
     Пиковый уровень 96.7 %
     Качество диапазона 100.0 %
     CRC теста 2AB4FE92
     CRC копии 2AB4FE92
     Копирование... OK
Ошибок не произошло
AccurateRip: сводка
Трек  1  точность не определена (достоверность 2)  [0676F774], AccurateRip вернул [6AC0A2E9]
Трек  2  точность не определена (достоверность 2)  [4E2D681F], AccurateRip вернул [44EF0B72]
Трек  3  точность не определена (достоверность 2)  [366738AB], AccurateRip вернул [8AEE264B]
Трек  4  точность не определена (достоверность 2)  [E498FEE9], AccurateRip вернул [3FDDE2A1]
Трек  5  точность не определена (достоверность 2)  [F1B4EF18], AccurateRip вернул [54961FE0]
Трек  6  точность не определена (достоверность 2)  [24905B6B], AccurateRip вернул [DF6ACFEB]
Трек  7  точность не определена (достоверность 2)  [55A8686F], AccurateRip вернул [A4044287]
Трек  8  точность не определена (достоверность 2)  [F6DAC87C], AccurateRip вернул [5D162A8C]
Трек  9  точность не определена (достоверность 2)  [AF951A5B], AccurateRip вернул [95B3BA33]
Трек 10  точность не определена (достоверность 2)  [1E460A20], AccurateRip вернул [F74E4A00]
Трек 11  точность не определена (достоверность 2)  [A76999AC], AccurateRip вернул [7FE36B24]
Трек 12  точность не определена (достоверность 2)  [07F4AEB9], AccurateRip вернул [14080391]
Трек 13  точность не определена (достоверность 2)  [48DE3DDF], AccurateRip вернул [E6027357]
Трек 14  точность не определена (достоверность 2)  [EAE8E8FB], AccurateRip вернул [71BB7183]
Ни один трек не прошёл проверки на точность
В вашей базе может быть иной вариант штамповки диска
Конец отчёта
Код:
REM GENRE Darkwave
REM DATE 2008
REM DISCID BE0FCB0E
REM COMMENT "ExactAudioCopy v0.99pb5"
PERFORMER "ESC"
TITLE "Enhancer"
FILE "ESC - Enhancer.flac" WAVE
  TRACK 01 AUDIO
    TITLE "Eden"
    PERFORMER "ESC"
    FLAGS DCP
    INDEX 01 00:00:00
  TRACK 02 AUDIO
    TITLE "Despise"
    PERFORMER "ESC"
    FLAGS DCP
    INDEX 01 00:41:21
  TRACK 03 AUDIO
    TITLE "Enhanger"
    PERFORMER "ESC"
    FLAGS DCP
    INDEX 00 05:23:61
    INDEX 01 05:24:61
  TRACK 04 AUDIO
    TITLE "Needle Catwalk"
    PERFORMER "ESC"
    FLAGS DCP
    INDEX 00 11:24:61
    INDEX 01 11:25:61
  TRACK 05 AUDIO
    TITLE "Heartware V2.0"
    PERFORMER "ESC"
    FLAGS DCP
    INDEX 00 16:20:56
    INDEX 01 16:21:56
  TRACK 06 AUDIO
    TITLE "Wrong Way"
    PERFORMER "ESC"
    FLAGS DCP
    INDEX 00 20:01:26
    INDEX 01 20:02:26
  TRACK 07 AUDIO
    TITLE "Waste of Ammo"
    PERFORMER "ESC"
    FLAGS DCP
    INDEX 00 26:33:05
    INDEX 01 26:34:05
  TRACK 08 AUDIO
    TITLE "Totes Licht"
    PERFORMER "ESC"
    FLAGS DCP
    INDEX 00 31:47:16
    INDEX 01 31:48:16
  TRACK 09 AUDIO
    TITLE "Alpha Male"
    PERFORMER "ESC"
    FLAGS DCP
    INDEX 00 36:59:35
    INDEX 01 37:00:35
  TRACK 10 AUDIO
    TITLE "Architecture"
    PERFORMER "ESC"
    FLAGS DCP
    INDEX 00 42:33:38
    INDEX 01 42:34:38
  TRACK 11 AUDIO
    TITLE "Deathtrap Circus"
    PERFORMER "ESC"
    FLAGS DCP
    INDEX 00 47:23:09
    INDEX 01 47:24:09
  TRACK 12 AUDIO
    TITLE "Attention Whore"
    PERFORMER "ESC"
    FLAGS DCP
    INDEX 00 51:38:21
    INDEX 01 51:39:21
  TRACK 13 AUDIO
    TITLE "0.26 (Bladefucked)"
    PERFORMER "ESC"
    FLAGS DCP
    INDEX 00 58:11:03
    INDEX 01 58:12:03
  TRACK 14 AUDIO
    TITLE "Reptile"
    PERFORMER "ESC"
    FLAGS DCP
    INDEX 00 62:49:72
    INDEX 01 62:50:72
Код:
-----------------------
DON'T MODIFY THIS FILE
-----------------------
PERFORMER: auCDtect Task Manager, ver. 1.5.1RC6 build 1.5.1.7
Copyright (c) 2008-2010 y-soft. All rights reserved
[url=http://y-soft.org]http://y-soft.org[/url]
ANALYZER: auCDtect: CD records authenticity detector, version 0.8.2
Copyright (c) 2004 Oleg Berngardt. All rights reserved.
Copyright (c) 2004 Alexander Djourik. All rights reserved.
FILE: ESC - Enhancer.flac
  Size: 556338894 Hash: FB946D1C40D689E702E0D10338EFC2A5 Accuracy: -m0
  Conclusion: CDDA 100%
  Signature: 3C978575B0EA19552A68802FB06861D8B6E59025
Португалия не так часто появляется в тыловых сводках по поставкам свежего electro/ebm мяса на передовые. Не уверен, что португальский проект ESC, плетущийся в обозе второго эшелона, что-то изменит в этом плане. На переднем крае нужны великие полководцы, способные изменить судьбы слушателей и музыкантов, а в последнее время с ними большая напряженка. Сейчас по полям и весям бегают все больше такие вот ESC - крепкие парни, неплохо разбирающиеся в технике исполнения и вооруженные до зубов, но... Все время это безобразно и разочаровывающее "но". ESC знают "как", но у них не хватает пока ментальных сил или еще чего там для ответа на вопрос "что". А без ответа на этот завораживающий вопрос получаются очень стандартные штампованные треки, коих в мире развелось чуть ли не больше, чем зараженных СПИДом в Африке. Быстрые, активные, ритмичные - эти вещицы напрочь лишены индивидуальности, а потому быстро забываются. На мой взгляд, незачем тратить время на то, что не оставит в душе заметного следа…
Источник: http://www.industrialreviews.ru/reviews/main.php?mode=review&id=5018
Правила, инструкции, FAQ!!!
Торрент  Добавлен [26 июн 2020, 20:43] Скачать торрент Магнет ссылка
Скачать торрент
[ Размер 18.49 КБ / Просмотров 4 ]

Статус
Проверен 
 
Размер  881.37 МБ
Приватный: Нет (DHT включён)
.torrent скачан  0
 


     Отправить личное сообщение
   
Страница 1 из 1
Показать сообщения за:  Поле сортировки  
Начать новую тему Ответить на тему


Сейчас этот форум просматривают: нет зарегистрированных пользователей и гости: 0


Вы не можете начинать темы
Вы не можете отвечать на сообщения
Вы не можете редактировать свои сообщения
Вы не можете удалять свои сообщения
Вы не можете добавлять вложения

Перейти:  
cron