Начать новую тему Ответить на тему
Статистика раздачи
Размер: 830.43 МБ | Добавлен: 26 июн 2020, 20:15 | Скачали: 0
Сидеров: 0  [0 байт/сек]    Личеров: 0  [0 байт/сек]
Пред. тема | След. тема 

Автор
Сообщение

СообщениеДобавлено: 26 июн 2020, 20:15 

Ответить с цитатой 

Diskonnekted / Hotel Existence [2×CD/ Box Set/ Limited Edition]
Жанр: EBM, Electro, Industrial
Страна-производитель диска: Belgium
Год издания: 2012
Издатель (лейбл): Alfa Matrix
Номер по каталогу: AM2114DCD
Страна: Belgium
Аудиокодек: FLAC (*.flac)
Тип рипа: image+.cue
Битрейт аудио: lossless
Продолжительность: 00:56:54/ 00:54:58
Источник (релизер): Личный СД
Наличие сканов в содержимом раздачи: да
Треклист:
CD1:Hotel Existence
01. Yesteryears
02. Conspiracy
03. Justify
04. Razorsharpshooter
05. Dark place (ft GNY)
06. Empty
07. Sunblind
08. Little darkness
09. Neverland
10. Stuck in one universe
11. To have and to hold
12. Justify (short reprise)
13. Dalloway’s journey (ft Lemongrazz)
14. Tunnel vision
CD2:The Journey Backwards
01. Yesteryears (club)
02. Neverland (Paul Udarov mix)
03. Justify (Sleepless Remix)
04. Little Darkness (Mildreda mix)
05. Sunblind (Psy'Aviah mix)
06. Dark place (Hidden Particles mix)
07. Empty (Lemongrazz mix)
08. Dalloway's journey (Lemongrazz' original instrumental)
09. Justify (radio edit)
10. Little Darkness (Essence Of Mind mix)
11. Yesteryears (Liquid Divine mix)
12. Kalnienk Vision
Код:
Exact Audio Copy V1.0 beta 3 from 29. August 2011
Отчёт EAC об извлечении, выполненном 4. января 2013, 22:46
Diskonnekted / Hotel Existence
Дисковод: PIONEER BD-RW   BDR-207D   Adapter: 2  ID: 1
Режим чтения                 : Достоверность
Использование точного потока : Да
Отключение кэша аудио        : Да
Использование указателей C2  : Нет
Коррекция смещения при чтении                     : 667
Способность читать области Lead-in и Lead-out     : Нет
Заполнение пропущенных сэмплов тишиной            : Да
Удаление блоков с тишиной в начале и конце        : Нет
При вычислениях CRC использовались нулевые сэмплы : Да
Интерфейс                                         : Встроенный Win32-интерфейс для Win NT/2000
Выходной формат          : Пользовательский кодировщик
Выбранный битрейт        : 1024 kBit/s
Качество                 : Высокий
Добавление ID3-тега      : Нет
Утилита сжатия           : C:\Program Files\Exact Audio Copy\Flac\flac.exe
Дополнительные параметры : -V -8 -T "Date=%year%" -T "Genre=%genre%" %source%
TOC извлечённого CD
     Трек |   Старт  | Длительность | Начальный сектор | Конечный сектор
    ---------------------------------------------------------------------
       1  |  0:00.00 |    5:15.58   |           0      |      23682
       2  |  5:15.58 |    3:43.21   |       23683      |      40428
       3  |  8:59.04 |    5:20.38   |       40429      |      64466
       4  | 14:19.42 |    3:36.62   |       64467      |      80728
       5  | 17:56.29 |    4:37.22   |       80729      |     101525
       6  | 22:33.51 |    3:21.58   |      101526      |     116658
       7  | 25:55.34 |    4:01.63   |      116659      |     134796
       8  | 29:57.22 |    4:01.56   |      134797      |     152927
       9  | 33:59.03 |    3:56.73   |      152928      |     170700
      10  | 37:56.01 |    2:40.31   |      170701      |     182731
      11  | 40:36.32 |    3:57.63   |      182732      |     200569
      12  | 44:34.20 |    0:46.74   |      200570      |     204093
      13  | 45:21.19 |    6:37.44   |      204094      |     233912
      14  | 51:58.63 |    4:55.12   |      233913      |     256049
Характеристики диапазона извлечения и сообщения об ошибках
Выбранный диапазон
     Имя файла M:\Раздачи Rodexx\Diskonnekted - Hotel Existence [2CD]\Diskonnekted - Hotel Existence.wav
     Пиковый уровень 100.0 %
     Скорость извлечения 4.5 X
     Качество диапазона 100.0 %
     CRC теста 53B51ED1
     CRC копии 53B51ED1
     Копирование... OK
Ошибок не произошло
AccurateRip: сводка
Трек  1  отсутствует в базе данных
Трек  2  отсутствует в базе данных
Трек  3  отсутствует в базе данных
Трек  4  отсутствует в базе данных
Трек  5  отсутствует в базе данных
Трек  6  отсутствует в базе данных
Трек  7  отсутствует в базе данных
Трек  8  отсутствует в базе данных
Трек  9  отсутствует в базе данных
Трек 10  отсутствует в базе данных
Трек 11  отсутствует в базе данных
Трек 12  отсутствует в базе данных
Трек 13  отсутствует в базе данных
Трек 14  отсутствует в базе данных
Ни одного трека нет в базе AccurateRip
Конец отчёта
==== Контрольная сумма отчёта 347123219C25B063C3933074CC03CDD2D59C3A6DDC7C101F7955966079946924 ====
Код:
Exact Audio Copy V1.0 beta 3 from 29. August 2011
Отчёт EAC об извлечении, выполненном 4. января 2013, 22:26
Diskonnekted / The Journey Backwards
Дисковод: PIONEER BD-RW   BDR-207D   Adapter: 2  ID: 1
Режим чтения                 : Достоверность
Использование точного потока : Да
Отключение кэша аудио        : Да
Использование указателей C2  : Нет
Коррекция смещения при чтении                     : 667
Способность читать области Lead-in и Lead-out     : Нет
Заполнение пропущенных сэмплов тишиной            : Да
Удаление блоков с тишиной в начале и конце        : Нет
При вычислениях CRC использовались нулевые сэмплы : Да
Интерфейс                                         : Встроенный Win32-интерфейс для Win NT/2000
Выходной формат          : Пользовательский кодировщик
Выбранный битрейт        : 1024 kBit/s
Качество                 : Высокий
Добавление ID3-тега      : Нет
Утилита сжатия           : C:\Program Files\Exact Audio Copy\Flac\flac.exe
Дополнительные параметры : -V -8 -T "Date=%year%" -T "Genre=%genre%" %source%
TOC извлечённого CD
     Трек |   Старт  | Длительность | Начальный сектор | Конечный сектор
    ---------------------------------------------------------------------
       1  |  0:00.00 |    5:26.63   |           0      |      24512
       2  |  5:26.63 |    2:38.31   |       24513      |      36393
       3  |  8:05.19 |    4:35.37   |       36394      |      57055
       4  | 12:40.56 |    4:33.06   |       57056      |      77536
       5  | 17:13.62 |    4:35.51   |       77537      |      98212
       6  | 21:49.38 |    3:51.32   |       98213      |     115569
       7  | 25:40.70 |    7:40.60   |      115570      |     150129
       8  | 33:21.55 |    6:37.04   |      150130      |     179908
       9  | 39:58.59 |    3:37.31   |      179909      |     196214
      10  | 43:36.15 |    3:42.60   |      196215      |     212924
      11  | 47:19.00 |    4:28.41   |      212925      |     233065
      12  | 51:47.41 |    3:10.34   |      233066      |     247349
Характеристики диапазона извлечения и сообщения об ошибках
Выбранный диапазон
     Имя файла M:\Раздачи Rodexx\Diskonnekted - Hotel Existence [2CD]\Diskonnekted - The Journey Backwards.wav
     Пиковый уровень 98.0 %
     Скорость извлечения 7.2 X
     Качество диапазона 100.0 %
     CRC теста 915D569A
     CRC копии 915D569A
     Копирование... OK
Ошибок не произошло
AccurateRip: сводка
Трек  1  отсутствует в базе данных
Трек  2  отсутствует в базе данных
Трек  3  отсутствует в базе данных
Трек  4  отсутствует в базе данных
Трек  5  отсутствует в базе данных
Трек  6  отсутствует в базе данных
Трек  7  отсутствует в базе данных
Трек  8  отсутствует в базе данных
Трек  9  отсутствует в базе данных
Трек 10  отсутствует в базе данных
Трек 11  отсутствует в базе данных
Трек 12  отсутствует в базе данных
Ни одного трека нет в базе AccurateRip
Конец отчёта
==== Контрольная сумма отчёта FF14DDD5523137905DF5AB469B931F23F6CDB527C3436293203985E2618503FB ====
Правила, инструкции, FAQ!!!
Торрент  Добавлен [26 июн 2020, 20:15] Скачать торрент Магнет ссылка
Скачать торрент
[ Размер 17.83 КБ / Просмотров 10 ]

Статус
Проверен 
 
Размер  830.43 МБ
Приватный: Нет (DHT включён)
.torrent скачан  0
 


     Отправить личное сообщение
   
Страница 1 из 1
Показать сообщения за:  Поле сортировки  
Начать новую тему Ответить на тему


Сейчас этот форум просматривают: нет зарегистрированных пользователей и гости: 0


Вы не можете начинать темы
Вы не можете отвечать на сообщения
Вы не можете редактировать свои сообщения
Вы не можете удалять свои сообщения
Вы не можете добавлять вложения

Перейти:  
cron