Начать новую тему Ответить на тему
Статистика раздачи
Размер: 137.95 МБ | Добавлен: 26 июн 2020, 16:52 | Скачали: 0
Сидеров: 0  [0 байт/сек]    Личеров: 0  [0 байт/сек]
Пред. тема | След. тема 

Автор
Сообщение

СообщениеДобавлено: 26 июн 2020, 16:52 

Ответить с цитатой 

Devoid - Emotional Greed (MCD)
Жанр: EBM / Electro / Industrial
Год выпуска диска: 1992
Производитель диска: Sweden
Аудио кодек: APE
Тип рипа: image+.cue
Битрейт аудио: lossless
Продолжительность: 19:41
Трэклист:
1 Emotional Greed (Orginal Version) (4:46)
2 Are Friends Electric (Blockhouse Mix) (5:16) Remix - Jezz Wright Written By - Gary Numan / G. Webb
3 Emotional Greed (Cultivated Bimbo's Cybertrashmix) (5:17) Remix - Cultivated Bimbo
4 Emotional Greed (The Ultimate Rat Mix) (4:45) Remix - Mortal Memories
Доп. информация: Energy Rekords; ERCD 010
"Are Friends Electric" originally performed by Tubeway Army.
Код:
Exact Audio Copy V0.99 prebeta 4 from 23. January 2008
EAC extraction logfile from 3. December 2008, 13:22
Devoid / Emotional Greed
Used drive  : PIONEER DVD-RW  DVR-112D   Adapter: 1  ID: 1
Read mode               : Secure
Utilize accurate stream : Yes
Defeat audio cache      : Yes
Make use of C2 pointers : No
Read offset correction                      : 48
Overread into Lead-In and Lead-Out          : No
Fill up missing offset samples with silence : Yes
Delete leading and trailing silent blocks   : No
Null samples used in CRC calculations       : Yes
Used interface                              : Installed external ASPI interface
Used output format : Internal WAV Routines
Sample format      : 44.100 Hz; 16 Bit; Stereo
TOC of the extracted CD
     Track |   Start  |  Length  | Start sector | End sector
    ---------------------------------------------------------
        1  |  0:00.00 |  4:44.27 |         0  |       21326
        2  |  4:44.27 |  5:16.48 |     21327  |       45074
        3  | 10:01.00 |  5:17.42 |     45075  |       68891
        4  | 15:18.42 |  4:20.54 |     68892  |       88445
Range status and errors
Selected range
   Filename J:\Devoid - Emotional Greed CD5\CDImage.wav
   Peak level 96.3 %
   Range quality 100.0 %
   Test CRC 52660EA5
   Copy CRC 52660EA5
   Copy OK
No errors occurred
AccurateRip summary
Track  1  not present in database
Track  2  not present in database
Track  3  not present in database
Track  4  not present in database
None of the tracks are present in the AccurateRip database
End of status report
Код:
AUDIOCHECKER v2.0 beta (build 457) - by Dester - opdester@freemail.hu
~~~~~~~~~~~~~~~~~~~~~~~~~~~~~~~~~~
-=== DO NOT EDIT THIS FILE! ===-
Path: ...\Devoid - Emotional Greed CD5
01 -=- CDImage.wav -=- CDDA (100%)
190127764
Понравилась раздача? Нажми на кнопочку "Спасибо", а также плюсони мне в репутацию
Правила, инструкции, FAQ!!!
Торрент  Добавлен [26 июн 2020, 16:52] Скачать торрент Магнет ссылка
Скачать торрент
[ Размер 11.47 КБ / Просмотров 6 ]

Статус
Проверен 
 
Размер  137.95 МБ
Приватный: Нет (DHT включён)
.torrent скачан  0
 


     Отправить личное сообщение
   
Страница 1 из 1
Показать сообщения за:  Поле сортировки  
Начать новую тему Ответить на тему


Сейчас этот форум просматривают: нет зарегистрированных пользователей и гости: 0


Вы не можете начинать темы
Вы не можете отвечать на сообщения
Вы не можете редактировать свои сообщения
Вы не можете удалять свои сообщения
Вы не можете добавлять вложения

Перейти:  
cron