Начать новую тему Ответить на тему
Статистика раздачи
Размер: 586.84 МБ | Добавлен: 26 июн 2020, 16:53 | Скачали: 0
Сидеров: 0  [0 байт/сек]    Личеров: 0  [0 байт/сек]
Пред. тема | След. тема 

Автор
Сообщение

СообщениеДобавлено: 26 июн 2020, 16:53 

Ответить с цитатой 

Various Artists - deCODEr v2.0
Жанр: EBM, Electro, Industrial
Страна-производитель диска: Germany
Год издания диска: 2004
Издатель (лейбл): Infacted Recordings
Номер по каталогу: fact 3021-2
Аудио кодек: FLAC (*.flac)
Тип рипа: tracks+.cue
Битрейт аудио: lossless
Продолжительность: 1:18:16
Источник (релизер): what.cd(Nacktakt)
Наличие сканов в содержимом раздачи: нет
Треклист:
1. Agonoize - Open The Gate (4:37)
2. Dunkelwerk - Die Sechste Arme (M.A.O. Mi (4:30)
3. Die Sektor - Lust Angel (5:59)
4. X-Fusion - Gulity Mass (5:32)
5. Contrast - Follow The Leaders (4:58)
6. Arzt+Pfusch - Cthulhu Supermarket (4:38)
7. Discipline Unit - Advanced Surpression (3:44)
8. Terrorfakt - Arsenal (4:18)
9. Coinside - Eremit (5:55)
10. The Plastic Noise Experience - Plastik Fantastik (3:54)
11. Controlled Collapse - Guidance (X-fusion Remi (4:24)
12. Klaustrophobik - You Can`t Explain (7:03)
13. Serevere Illusion - Surveillance (4:14)
14. Hicotan - Narrow (4:41)
15. Invdidious - Freier Mensch (5:18)
16. Virtual Embrace - The End (4:25)
Discogs.com
Код:
Exact Audio Copy V0.99 prebeta 4 from 23. January 2008
EAC extraction logfile from 30. November 2008, 15:56
Various Artists / deCODEr v2.0
Used drive  : HL-DT-STDVD-RAM GSA-H55N   Adapter: 1  ID: 0
Read mode               : Secure
Utilize accurate stream : Yes
Defeat audio cache      : Yes
Make use of C2 pointers : No
Read offset correction                      : 102
Overread into Lead-In and Lead-Out          : No
Fill up missing offset samples with silence : Yes
Delete leading and trailing silent blocks   : No
Null samples used in CRC calculations       : Yes
Used interface                              : Native Win32 interface for Win NT & 2000
Gap handling                                : Appended to previous track
Used output format              : User Defined Encoder
Selected bitrate                : 128 kBit/s
Quality                         : High
Add ID3 tag                     : No
Command line compressor         : D:\Programme\Exact Audio Copy\Flac\flac.exe
Additional command line options : -V -8 -T "artist=%a" -T "title=%t" -T "album=%g" -T "date=%y" -T "tracknumber=%n" -T "genre=%m" %s
TOC of the extracted CD
     Track |   Start  |  Length  | Start sector | End sector
    ---------------------------------------------------------
        1  |  0:00.00 |  4:37.09 |         0    |    20783
        2  |  4:37.09 |  4:30.56 |     20784    |    41089
        3  |  9:07.65 |  5:59.62 |     41090    |    68076
        4  | 15:07.52 |  5:32.63 |     68077    |    93039
        5  | 20:40.40 |  4:58.11 |     93040    |   115400
        6  | 25:38.51 |  4:38.33 |    115401    |   136283
        7  | 30:17.09 |  3:44.17 |    136284    |   153100
        8  | 34:01.26 |  4:18.49 |    153101    |   172499
        9  | 38:20.00 |  5:55.11 |    172500    |   199135
       10  | 44:15.11 |  3:54.42 |    199136    |   216727
       11  | 48:09.53 |  4:24.13 |    216728    |   236540
       12  | 52:33.66 |  7:03.32 |    236541    |   268297
       13  | 59:37.23 |  4:14.35 |    268298    |   287382
       14  | 63:51.58 |  4:41.06 |    287383    |   308463
       15  | 68:32.64 |  5:18.17 |    308464    |   332330
       16  | 73:51.06 |  4:25.30 |    332331    |   352235
Track  1
     Filename C:\EACrips\flac\deCODEr v2.0 - 2005\01 - Agonize - Open the gate - Agonize - Open the gate.wav
     Pre-gap length  0:00:02.00
     Peak level 100.0 %
     Track quality 100.0 %
     Test CRC F38B5FC3
     Copy CRC F38B5FC3
     Accurately ripped (confidence 4)  [F7DC7FAA]
     Copy OK
Track  2
     Filename C:\EACrips\flac\deCODEr v2.0 - 2005\02 - Dunkelwerk - Die sechste Armee (M.A.O. mix) - Dunkelwerk - Die sechste Armee (M.A.O. mix).wav
     Pre-gap length  0:00:01.98
     Peak level 100.0 %
     Track quality 100.0 %
     Test CRC 65D019F1
     Copy CRC 65D019F1
     Accurately ripped (confidence 4)  [C6DC3350]
     Copy OK
Track  3
     Filename C:\EACrips\flac\deCODEr v2.0 - 2005\03 - Die Sektor - Lust angel - Die Sektor - Lust angel.wav
     Pre-gap length  0:00:01.98
     Peak level 100.0 %
     Track quality 100.0 %
     Test CRC 2739291E
     Copy CRC 2739291E
     Accurately ripped (confidence 4)  [A0FE9049]
     Copy OK
Track  4
     Filename C:\EACrips\flac\deCODEr v2.0 - 2005\04 - X-Fusion - Guilty mass - X-Fusion - Guilty mass.wav
     Pre-gap length  0:00:01.98
     Peak level 100.0 %
     Track quality 100.0 %
     Test CRC 08EB2EAB
     Copy CRC 08EB2EAB
     Accurately ripped (confidence 4)  [209BF582]
     Copy OK
Track  5
     Filename C:\EACrips\flac\deCODEr v2.0 - 2005\05 - Contrast - Follow the leaders - Contrast - Follow the leaders.wav
     Pre-gap length  0:00:01.98
     Peak level 100.0 %
     Track quality 100.0 %
     Test CRC 9C1FE739
     Copy CRC 9C1FE739
     Accurately ripped (confidence 4)  [5280177F]
     Copy OK
Track  6
     Filename C:\EACrips\flac\deCODEr v2.0 - 2005\06 - Arzt+Pfusch - Cthulhu supermarket - Arzt+Pfusch - Cthulhu supermarket.wav
     Pre-gap length  0:00:01.98
     Peak level 100.0 %
     Track quality 100.0 %
     Test CRC A1789738
     Copy CRC A1789738
     Track not present in AccurateRip database
     Copy OK
Track  7
     Filename C:\EACrips\flac\deCODEr v2.0 - 2005\07 - Discipline Unit - Advanced surpression - Discipline Unit - Advanced surpression.wav
     Pre-gap length  0:00:01.98
     Peak level 100.0 %
     Track quality 100.0 %
     Test CRC 73EEF2C4
     Copy CRC 73EEF2C4
     Accurately ripped (confidence 4)  [B8951F07]
     Copy OK
Track  8
     Filename C:\EACrips\flac\deCODEr v2.0 - 2005\08 - Terrorfakt - Arsenal - Terrorfakt - Arsenal.wav
     Pre-gap length  0:00:01.98
     Peak level 100.0 %
     Track quality 99.9 %
     Test CRC 6F396771
     Copy CRC 6F396771
     Accurately ripped (confidence 4)  [35A97BCC]
     Copy OK
Track  9
     Filename C:\EACrips\flac\deCODEr v2.0 - 2005\09 - Coinside - Eremit - Coinside - Eremit.wav
     Pre-gap length  0:00:01.98
     Peak level 100.0 %
     Track quality 100.0 %
     Test CRC EC87BA69
     Copy CRC EC87BA69
     Accurately ripped (confidence 4)  [26EB8F1C]
     Copy OK
Track 10
     Filename C:\EACrips\flac\deCODEr v2.0 - 2005\10 - Plastic Noise Experience - Plastik fantastik - Plastic Noise Experience - Plastik fantastik.wav
     Pre-gap length  0:00:01.98
     Peak level 100.0 %
     Track quality 100.0 %
     Test CRC 5D9A979E
     Copy CRC 5D9A979E
     Accurately ripped (confidence 4)  [5E2392AD]
     Copy OK
Track 11
     Filename C:\EACrips\flac\deCODEr v2.0 - 2005\11 - Controlled Collapse - Guidance (X-Fusion remix) - Controlled Collapse - Guidance (X-Fusion remix).wav
     Pre-gap length  0:00:01.98
     Peak level 100.0 %
     Track quality 100.0 %
     Test CRC D507822B
     Copy CRC D507822B
     Accurately ripped (confidence 4)  [CE7819BC]
     Copy OK
Track 12
     Filename C:\EACrips\flac\deCODEr v2.0 - 2005\12 - Klaustrophobik - You can't x-plain - Klaustrophobik - You can't x-plain.wav
     Pre-gap length  0:00:01.98
     Peak level 100.0 %
     Track quality 100.0 %
     Test CRC F705C99A
     Copy CRC F705C99A
     Accurately ripped (confidence 4)  [735590A5]
     Copy OK
Track 13
     Filename C:\EACrips\flac\deCODEr v2.0 - 2005\13 - Severe Illusion - Surveillance - Severe Illusion - Surveillance.wav
     Pre-gap length  0:00:01.98
     Peak level 100.0 %
     Track quality 100.0 %
     Test CRC 7890DDDF
     Copy CRC 7890DDDF
     Accurately ripped (confidence 4)  [B2CC299A]
     Copy OK
Track 14
     Filename C:\EACrips\flac\deCODEr v2.0 - 2005\14 - Hioctan - Narrow - Hioctan - Narrow.wav
     Pre-gap length  0:00:01.98
     Peak level 100.0 %
     Track quality 100.0 %
     Test CRC 0EF80CC6
     Copy CRC 0EF80CC6
     Accurately ripped (confidence 4)  [A95DED9F]
     Copy OK
Track 15
     Filename C:\EACrips\flac\deCODEr v2.0 - 2005\15 - Invidious - Freier Mensch - Invidious - Freier Mensch.wav
     Pre-gap length  0:00:01.98
     Peak level 100.0 %
     Track quality 100.0 %
     Test CRC D011779E
     Copy CRC D011779E
     Accurately ripped (confidence 4)  [CD481A38]
     Copy OK
Track 16
     Filename C:\EACrips\flac\deCODEr v2.0 - 2005\16 - Virtual][Embrace - The end - Virtual][Embrace - The end.wav
     Pre-gap length  0:00:01.98
     Peak level 100.0 %
     Track quality 100.0 %
     Test CRC E199A2AC
     Copy CRC E199A2AC
     Accurately ripped (confidence 4)  [56AFE82E]
     Copy OK
15 track(s) accurately ripped
 1 track(s) not present in the AccurateRip database
Some tracks could not be verified as accurate
No errors occurred
End of status report
Код:
REM GENRE Electronic
REM DATE 2005
REM DISCID E5125810
REM COMMENT "ExactAudioCopy v0.99pb4"
PERFORMER "Various Artists"
TITLE "deCODEr v2.0"
FILE "01 - Agonoize - Open the gate.wav" WAVE
  TRACK 01 AUDIO
    TITLE "Open the gate"
    PERFORMER "Agonoize"
    INDEX 01 00:00:00
  TRACK 02 AUDIO
    TITLE "Die sechste Armee (M.A.O. mix)"
    PERFORMER "Dunkelwerk"
    INDEX 00 04:35:10
FILE "02 - Dunkelwerk - Die sechste Armee (M.A.O. mix).wav" WAVE
    INDEX 01 00:00:00
  TRACK 03 AUDIO
    TITLE "Lust angel"
    PERFORMER "Die Sektor"
    INDEX 00 04:28:57
FILE "03 - Die Sektor - Lust angel.wav" WAVE
    INDEX 01 00:00:00
  TRACK 04 AUDIO
    TITLE "Guilty mass"
    PERFORMER "X-Fusion"
    INDEX 00 05:57:63
FILE "04 - X-Fusion - Guilty mass.wav" WAVE
    INDEX 01 00:00:00
  TRACK 05 AUDIO
    TITLE "Follow the leaders"
    PERFORMER "Contrast"
    INDEX 00 05:30:64
FILE "05 - Contrast - Follow the leaders.wav" WAVE
    INDEX 01 00:00:00
  TRACK 06 AUDIO
    TITLE "Cthulhu supermarket"
    PERFORMER "Arzt+Pfusch"
    INDEX 00 04:56:12
FILE "06 - Arzt+Pfusch - Cthulhu supermarket.wav" WAVE
    INDEX 01 00:00:00
  TRACK 07 AUDIO
    TITLE "Advanced surpression"
    PERFORMER "Discipline Unit"
    INDEX 00 04:36:34
FILE "07 - Discipline Unit - Advanced surpression.wav" WAVE
    INDEX 01 00:00:00
  TRACK 08 AUDIO
    TITLE "Arsenal"
    PERFORMER "Terrorfakt"
    INDEX 00 03:42:18
FILE "08 - Terrorfakt - Arsenal.wav" WAVE
    INDEX 01 00:00:00
  TRACK 09 AUDIO
    TITLE "Eremit"
    PERFORMER "Coinside"
    INDEX 00 04:16:50
FILE "09 - Coinside - Eremit.wav" WAVE
    INDEX 01 00:00:00
  TRACK 10 AUDIO
    TITLE "Plastik fantastik"
    PERFORMER "Plastic Noise Experience"
    INDEX 00 05:53:12
FILE "10 - Plastic Noise Experience - Plastik fantastik.wav" WAVE
    INDEX 01 00:00:00
  TRACK 11 AUDIO
    TITLE "Guidance (X-Fusion remix)"
    PERFORMER "Controlled Collapse"
    INDEX 00 03:52:43
FILE "11 - Controlled Collapse - Guidance (X-Fusion remix).wav" WAVE
    INDEX 01 00:00:00
  TRACK 12 AUDIO
    TITLE "You can't x-plain"
    PERFORMER "Klaustrophobik"
    INDEX 00 04:22:14
FILE "12 - Klaustrophobik - You can't x-plain.wav" WAVE
    INDEX 01 00:00:00
  TRACK 13 AUDIO
    TITLE "Surveillance"
    PERFORMER "Severe Illusion"
    INDEX 00 07:01:33
FILE "13 - Severe Illusion - Surveillance.wav" WAVE
    INDEX 01 00:00:00
  TRACK 14 AUDIO
    TITLE "Narrow"
    PERFORMER "Hioctan"
    INDEX 00 04:12:36
FILE "14 - Hioctan - Narrow.wav" WAVE
    INDEX 01 00:00:00
  TRACK 15 AUDIO
    TITLE "Freier Mensch"
    PERFORMER "Invidious"
    INDEX 00 04:39:07
FILE "15 - Invidious - Freier Mensch.wav" WAVE
    INDEX 01 00:00:00
  TRACK 16 AUDIO
    TITLE "The end"
    PERFORMER "Virtual Embrace - The end"
    INDEX 00 05:16:18
FILE "16 - Virtual][Embrace - The end.wav" WAVE
    INDEX 01 00:00:00
Код:
-----------------------------------------------------------
Started at: пятница, 31. 12. 2010. - 15:18.23
16 files found
01 -===- E:\Music\deCODEr v2.0 - 2004 [FLAC]\01 - Agonoize - Open the gate.flac
  Extracted successfully
  Conclusion: This track looks like CDDA with probability 99%
  Tempfile successfully deleted.
02 -===- E:\Music\deCODEr v2.0 - 2004 [FLAC]\02 - Dunkelwerk - Die sechste Armee (M.A.O. mix).flac
  Extracted successfully
  Conclusion: This track looks like CDDA with probability 100%
  Tempfile successfully deleted.
03 -===- E:\Music\deCODEr v2.0 - 2004 [FLAC]\03 - Die Sektor - Lust angel - Die Sektor - Lust angel.flac
  Extracted successfully
  Conclusion: This track looks like CDDA with probability 87%
  Tempfile successfully deleted.
04 -===- E:\Music\deCODEr v2.0 - 2004 [FLAC]\04 - X-Fusion - Guilty mass.flac
  Extracted successfully
  Conclusion: This track looks like MPEG with probability 95%
  Tempfile successfully deleted.
05 -===- E:\Music\deCODEr v2.0 - 2004 [FLAC]\05 - Contrast - Follow the leaders.flac
  Extracted successfully
  Conclusion: This track looks like CDDA with probability 100%
  Tempfile successfully deleted.
06 -===- E:\Music\deCODEr v2.0 - 2004 [FLAC]\06 - Arzt+Pfusch - Cthulhu supermarket.flac
  Extracted successfully
  Conclusion: This track looks like CDDA with probability 100%
  Tempfile successfully deleted.
07 -===- E:\Music\deCODEr v2.0 - 2004 [FLAC]\07 - Discipline Unit - Advanced surpression.flac
  Extracted successfully
  Conclusion: This track looks like CDDA with probability 100%
  Tempfile successfully deleted.
08 -===- E:\Music\deCODEr v2.0 - 2004 [FLAC]\08 - Terrorfakt - Arsenal.flac
  Extracted successfully
  Conclusion: This track looks like MPEG with probability 95%
  Tempfile successfully deleted.
09 -===- E:\Music\deCODEr v2.0 - 2004 [FLAC]\09 - Coinside - Eremit.flac
  Extracted successfully
  Conclusion: This track looks like CDDA with probability 100%
  Tempfile successfully deleted.
10 -===- E:\Music\deCODEr v2.0 - 2004 [FLAC]\10 - Plastic Noise Experience - Plastik fantastik.flac
  Extracted successfully
  Conclusion: This track looks like CDDA with probability 100%
  Tempfile successfully deleted.
11 -===- E:\Music\deCODEr v2.0 - 2004 [FLAC]\11 - Controlled Collapse - Guidance (X-Fusion remix).flac
  Extracted successfully
  Conclusion: This track looks like MPEG with probability 91%
  Tempfile successfully deleted.
12 -===- E:\Music\deCODEr v2.0 - 2004 [FLAC]\12 - Klaustrophobik - You can't x-plain.flac
  Extracted successfully
  Conclusion: This track looks like CDDA with probability 100%
  Tempfile successfully deleted.
13 -===- E:\Music\deCODEr v2.0 - 2004 [FLAC]\13 - Severe Illusion - Surveillance.flac
  Extracted successfully
  Conclusion: This track looks like CDDA with probability 100%
  Tempfile successfully deleted.
14 -===- E:\Music\deCODEr v2.0 - 2004 [FLAC]\14 - Hioctan - Narrow.flac
  Extracted successfully
  Conclusion: This track looks like CDDA with probability 100%
  Tempfile successfully deleted.
15 -===- E:\Music\deCODEr v2.0 - 2004 [FLAC]\15 - Invidious - Freier Mensch.flac
  Extracted successfully
  Conclusion: This track looks like CDDA with probability 100%
  Tempfile successfully deleted.
16 -===- E:\Music\deCODEr v2.0 - 2004 [FLAC]\16 - Virtual][Embrace - The end.flac
  Extracted successfully
  Conclusion: This track looks like CDDA with probability 100%
  Tempfile successfully deleted.
Finished at: пятница, 31. 12. 2010. - 15:25.38 (operation time: 0:07.15)
Правила, инструкции, FAQ!!!
Торрент  Добавлен [26 июн 2020, 16:53] Скачать торрент Магнет ссылка
Скачать торрент
[ Размер 185.15 КБ / Просмотров 5 ]

Статус
Проверен 
 
Размер  586.84 МБ
Приватный: Нет (DHT включён)
.torrent скачан  0
 


     Отправить личное сообщение
   
Страница 1 из 1
Показать сообщения за:  Поле сортировки  
Начать новую тему Ответить на тему


Сейчас этот форум просматривают: нет зарегистрированных пользователей и гости: 0


Вы не можете начинать темы
Вы не можете отвечать на сообщения
Вы не можете редактировать свои сообщения
Вы не можете удалять свои сообщения
Вы не можете добавлять вложения

Перейти:  
cron