Начать новую тему Ответить на тему
Статистика раздачи
Размер: 432.55 МБ | Добавлен: 26 июн 2020, 17:44 | Скачали: 0
Сидеров: 0  [0 байт/сек]    Личеров: 0  [0 байт/сек]
Пред. тема | След. тема 

Автор
Сообщение

СообщениеДобавлено: 26 июн 2020, 17:44 

Ответить с цитатой 

Decoded Feedback - Overdosing
Жанр: EBM / Electro / Industrial
Год выпуска диска: 1996
Производитель диска: US
Аудио кодек: APE
Тип рипа: image+.cue
Битрейт аудио: lossless
Продолжительность: 68:41
Трэклист:
1 Mother Tenebrarum (4:44)
2 Deathcall (4:49)
3 Deep Emotion (6:28)
4 The Birth Of A Nation (5:14)
5 Fear (Analogue To Digital Remix) (3:58)
6 Prophecy (5:15)
7 Technophoby (4:20)
8 No Way Out (5:59)
9 Overdosing (5:40)
10 Coming Down (4:02)
11 Dream Machine (2:48)
12 Red Cell (5:47)
13 It's Armageddon (4:44)
14 Fall-Out (4:47
Доп. информация: Cleopatra; CLP 9729
The Cleopatra release lists the tracks in the wrong order on the inlay and the CD. Above is the corrected tracklist.
Код:
Exact Audio Copy V0.99 prebeta 4 from 23. January 2008
EAC extraction logfile from 28. November 2008, 19:30
Decoded Feedback / Overdosing
Used drive  : PIONEER DVD-RW  DVR-112D   Adapter: 1  ID: 1
Read mode               : Secure
Utilize accurate stream : Yes
Defeat audio cache      : Yes
Make use of C2 pointers : No
Read offset correction                      : 48
Overread into Lead-In and Lead-Out          : No
Fill up missing offset samples with silence : Yes
Delete leading and trailing silent blocks   : No
Null samples used in CRC calculations       : Yes
Used interface                              : Installed external ASPI interface
Used output format : Internal WAV Routines
Sample format      : 44.100 Hz; 16 Bit; Stereo
TOC of the extracted CD
     Track |   Start  |  Length  | Start sector | End sector
    ---------------------------------------------------------
        1  |  0:00.50 |  4:44.20 |        50  |       21369
        2  |  4:44.70 |  4:49.62 |     21370  |       43106
        3  |  9:34.57 |  6:28.00 |     43107  |       72206
        4  | 16:02.57 |  5:14.13 |     72207  |       95769
        5  | 21:16.70 |  3:58.50 |     95770  |      113669
        6  | 25:15.45 |  5:15.05 |    113670  |      137299
        7  | 30:30.50 |  4:20.20 |    137300  |      156819
        8  | 34:50.70 |  5:59.25 |    156820  |      183769
        9  | 40:50.20 |  5:40.25 |    183770  |      209294
       10  | 46:30.45 |  4:02.25 |    209295  |      227469
       11  | 50:32.70 |  2:48.62 |    227470  |      240131
       12  | 53:21.57 |  5:47.73 |    240132  |      266229
       13  | 59:09.55 |  4:44.02 |    266230  |      287531
       14  | 63:53.57 |  4:47.63 |    287532  |      309119
Range status and errors
Selected range
   Filename I:\Decoded Feedback - Overdosing\CDImage.wav
   Peak level 100.0 %
   Range quality 100.0 %
   Test CRC DE8C4830
   Copy CRC DE8C4830
   Copy OK
No errors occurred
AccurateRip summary
Track  1  accurately ripped (confidence 2)  [AEC23A85]
Track  2  accurately ripped (confidence 2)  [CE922256]
Track  3  accurately ripped (confidence 2)  [F8B86267]
Track  4  accurately ripped (confidence 2)  [D94FF3FA]
Track  5  accurately ripped (confidence 2)  [E49E2E15]
Track  6  accurately ripped (confidence 2)  [78AE344C]
Track  7  accurately ripped (confidence 2)  [0A6DB23A]
Track  8  accurately ripped (confidence 2)  [A39BDDE2]
Track  9  accurately ripped (confidence 2)  [D57A4261]
Track 10  accurately ripped (confidence 2)  [0695430E]
Track 11  accurately ripped (confidence 2)  [B65363D1]
Track 12  accurately ripped (confidence 2)  [801D280A]
Track 13  accurately ripped (confidence 2)  [5B3497DC]
Track 14  accurately ripped (confidence 2)  [9EC63CE7]
All tracks accurately ripped
End of status report
Код:
AUDIOCHECKER v2.0 beta (build 457) - by Dester - opdester@freemail.hu
~~~~~~~~~~~~~~~~~~~~~~~~~~~~~~~~~~
-=== DO NOT EDIT THIS FILE! ===-
Path: ...\Decoded Feedback - Overdosing
1 -=- CDImage.wav -=- CDDA (100%)
190127764
Правила, инструкции, FAQ!!!
Торрент  Добавлен [26 июн 2020, 17:44] Скачать торрент Магнет ссылка
Скачать торрент
[ Размер 17.61 КБ / Просмотров 10 ]

Статус
Проверен 
 
Размер  432.55 МБ
Приватный: Нет (DHT включён)
.torrent скачан  0
 


     Отправить личное сообщение
   
Страница 1 из 1
Показать сообщения за:  Поле сортировки  
Начать новую тему Ответить на тему


Сейчас этот форум просматривают: нет зарегистрированных пользователей и гости: 0


Вы не можете начинать темы
Вы не можете отвечать на сообщения
Вы не можете редактировать свои сообщения
Вы не можете удалять свои сообщения
Вы не можете добавлять вложения

Перейти:  
cron