Начать новую тему Ответить на тему
Статистика раздачи
Размер: 550.85 МБ | Добавлен: 26 июн 2020, 17:57 | Скачали: 0
Сидеров: 1  [0 байт/сек]    Личеров: 0  [0 байт/сек]
Пред. тема | След. тема 

Автор
Сообщение

СообщениеДобавлено: 26 июн 2020, 17:57 

Ответить с цитатой 

Decoded Feedback / disKonnekt
Жанр: EBM, Electro, Industrial
Страна-производитель диска: Germany
Год издания: 2012
Издатель (лейбл): Mindbase / Dependent
Номер по каталогу: mind 195
Страна: Canada
Аудиокодек: FLAC (*.flac)
Тип рипа: image+.cue
Битрейт аудио: lossless
Продолжительность: 1:02:47.13
Источник (релизер): CD из личной коллекции.
Наличие сканов в содержимом раздачи: да
Треклист:
01. Another Loss 6:04
02. NightTerror 5:56
03. Heart Of Stone 4:57
04. Blood Red Moon 5:05
05. Dark Odyssey 5:31
06. Slaughter 5:09
07. It's You 4:56
08. I'm The Night 5:45
09. Mescaline 5:15
10. Soultaker (feat. Claus Larsen) 4:59
11. The Devil You Know 5:12
12. Blade Runner Tribute 3:59
Discogs
Код:
Exact Audio Copy V1.0 beta 3 from 29. August 2011
Отчёт EAC об извлечении, выполненном 13. июля 2012, 12:45
Decoded Feedback / disKonnekt
Дисковод: PIONEER DVD-RW  DVR-XD10   Adapter: 1  ID: 0
Режим чтения                 : Достоверность
Использование точного потока : Да
Отключение кэша аудио        : Да
Использование указателей C2  : Нет
Коррекция смещения при чтении                     : 96
Способность читать области Lead-in и Lead-out     : Нет
Заполнение пропущенных сэмплов тишиной            : Да
Удаление блоков с тишиной в начале и конце        : Нет
При вычислениях CRC использовались нулевые сэмплы : Да
Интерфейс                                         : Встроенный Win32-интерфейс для Win NT/2000
Выходной формат          : Пользовательский кодировщик
Выбранный битрейт        : 1024 kBit/s
Качество                 : Высокий
Добавление ID3-тега      : Нет
Утилита сжатия           : C:\Program Files\Exact Audio Copy\FLAC\FLAC.EXE
Дополнительные параметры : -V -8 -T "Date=%year%" -T "Genre=%genre%" %source%
TOC извлечённого CD
     Трек |   Старт  | Длительность | Начальный сектор | Конечный сектор
    ---------------------------------------------------------------------
       1  |  0:00.00 |    6:03.46   |           0      |      27270
       2  |  6:03.46 |    5:55.50   |       27271      |      53945
       3  | 11:59.21 |    4:57.24   |       53946      |      76244
       4  | 16:56.45 |    5:05.35   |       76245      |      99154
       5  | 22:02.05 |    5:30.65   |       99155      |     123969
       6  | 27:32.70 |    5:09.01   |      123970      |     147145
       7  | 32:41.71 |    4:56.26   |      147146      |     169371
       8  | 37:38.22 |    5:44.39   |      169372      |     195210
       9  | 43:22.61 |    5:14.61   |      195211      |     218821
      10  | 48:37.47 |    4:58.66   |      218822      |     241237
      11  | 53:36.38 |    5:12.02   |      241238      |     264639
      12  | 58:48.40 |    3:58.48   |      264640      |     282537
Характеристики диапазона извлечения и сообщения об ошибках
Выбранный диапазон
     Имя файла C:\Users\Алексей\Desktop\iPOD\Decoded Feedback - disKonnekt.wav
     Пиковый уровень 96.6 %
     Скорость извлечения 4.3 X
     Качество диапазона 99.9 %
     CRC теста 74F92230
     CRC копии 74F92230
     Копирование... OK
Ошибок не произошло
AccurateRip: сводка
Трек  1  отсутствует в базе данных
Трек  2  отсутствует в базе данных
Трек  3  отсутствует в базе данных
Трек  4  отсутствует в базе данных
Трек  5  отсутствует в базе данных
Трек  6  отсутствует в базе данных
Трек  7  отсутствует в базе данных
Трек  8  отсутствует в базе данных
Трек  9  отсутствует в базе данных
Трек 10  отсутствует в базе данных
Трек 11  отсутствует в базе данных
Трек 12  отсутствует в базе данных
Ни одного трека нет в базе AccurateRip
Конец отчёта
==== Контрольная сумма отчёта 1C2D0AD6EB2DEC90E68E66486445565BCDDCD70791C1BB2D47E888DBF29B2A66 ====
Код:
REM GENRE Industrial
REM DATE 2012
REM DISCID 950EB70C
REM COMMENT "ExactAudioCopy v1.0b3"
PERFORMER "Decoded Feedback"
TITLE "disKonnekt"
FILE "Decoded Feedback - disKonnekt.flac" WAVE
  TRACK 01 AUDIO
    TITLE "Another Loss"
    PERFORMER "Decoded Feedback"
    INDEX 01 00:00:00
  TRACK 02 AUDIO
    TITLE "NightTerror"
    PERFORMER "Decoded Feedback"
    INDEX 01 06:03:46
  TRACK 03 AUDIO
    TITLE "Heart of Stone"
    PERFORMER "Decoded Feedback"
    INDEX 01 11:59:21
  TRACK 04 AUDIO
    TITLE "Blood Red Moon"
    PERFORMER "Decoded Feedback"
    INDEX 01 16:56:45
  TRACK 05 AUDIO
    TITLE "Dark Odyssey"
    PERFORMER "Decoded Feedback"
    INDEX 01 22:02:05
  TRACK 06 AUDIO
    TITLE "Slaughter"
    PERFORMER "Decoded Feedback"
    INDEX 01 27:32:70
  TRACK 07 AUDIO
    TITLE "It's You"
    PERFORMER "Decoded Feedback"
    INDEX 01 32:41:71
  TRACK 08 AUDIO
    TITLE "I'm The Night"
    PERFORMER "Decoded Feedback"
    INDEX 01 37:38:22
  TRACK 09 AUDIO
    TITLE "Mescaline"
    PERFORMER "Decoded Feedback"
    INDEX 01 43:22:61
  TRACK 10 AUDIO
    TITLE "Soultaker (feat. Claus Larsen)"
    PERFORMER "Decoded Feedback"
    INDEX 01 48:37:47
  TRACK 11 AUDIO
    TITLE "The Devil You Know"
    PERFORMER "Decoded Feedback"
    INDEX 01 53:36:38
  TRACK 12 AUDIO
    TITLE "Blade Runner Tribute"
    PERFORMER "Decoded Feedback"
    INDEX 01 58:48:40
Код:
[url=https://fastpic.ru/view/43/2012/0713/b7d1f23247b8121042881fa23bf54cf4.jpg.html][img]http://i43.fastpic.ru/thumb/2012/0713/f4/b7d1f23247b8121042881fa23bf54cf4.jpeg[/img][/url][url=https://fastpic.ru/view/41/2012/0713/a3daf83991171b679b7ccd5453251ac2.jpg.html][img]http://i41.fastpic.ru/thumb/2012/0713/c2/a3daf83991171b679b7ccd5453251ac2.jpeg[/img][/url][url=https://fastpic.ru/view/40/2012/0713/77eaf9a87f162f50e819c509caa4b6f7.jpg.html][img]http://i40.fastpic.ru/thumb/2012/0713/f7/77eaf9a87f162f50e819c509caa4b6f7.jpeg[/img][/url][url=https://fastpic.ru/view/43/2012/0713/7915eee563cee8fbfbfa0ac914dd95a1.jpg.html][img]http://i43.fastpic.ru/thumb/2012/0713/a1/7915eee563cee8fbfbfa0ac914dd95a1.jpeg[/img][/url]
Правила, инструкции, FAQ!!!
Торрент  Добавлен [26 июн 2020, 17:57] Скачать торрент Магнет ссылка
Скачать торрент
[ Размер 12.11 КБ / Просмотров 17 ]

Статус
Проверен 
 
Размер  550.85 МБ
Приватный: Нет (DHT включён)
.torrent скачан  0
 


     Отправить личное сообщение
   
Страница 1 из 1
Показать сообщения за:  Поле сортировки  
Начать новую тему Ответить на тему


Сейчас этот форум просматривают: нет зарегистрированных пользователей и гости: 0


Вы не можете начинать темы
Вы не можете отвечать на сообщения
Вы не можете редактировать свои сообщения
Вы не можете удалять свои сообщения
Вы не можете добавлять вложения

Перейти:  
cron