Начать новую тему Ответить на тему
Статистика раздачи
Размер: 357.01 МБ | Добавлен: 26 июн 2020, 17:46 | Скачали: 0
Сидеров: 0  [0 байт/сек]    Личеров: 0  [0 байт/сек]
Пред. тема | След. тема 

Автор
Сообщение

СообщениеДобавлено: 26 июн 2020, 17:46 

Ответить с цитатой 

Decoded Feedback - Bio-Vital
Жанр: EBM / Electro / Industrial
Год выпуска диска: 1999
Производитель диска: Germany
Аудио кодек: APE
Тип рипа: image+.cue
Битрейт аудио: lossless
Продолжительность: 54:43
Трэклист:
1 Breathe (4:49)
2 Machine Kontrol (4:15)
3 This World (5:48)
4 Bio-Vital (5:23)
5 Relic (4:55)
6 Synthesis (4:45)
7 Bodycell (5:09)
8 God' Sin (4:52)
9 Ragescape (5:03)
10 Again (3:57)
11 Corrosion (Remix) (5:42) Remix - Lights Of Euphoria
Доп. информация: Zoth Ommog; CD ZOT 220
Original Version of Track 10 (Again) by The Frozen Autumn
Original release date is 1998, but this issue (с) 1999
Код:
EAC extraction logfile from 18. June 2001, 15:51 for CD
Decoded Feedback / Bio-Vital
Used drive  : TEAC    CD-W58E   Adapter: 0  ID: 0  LUN: 0
Read mode   : Secure NO C2, accurate stream, disable cache
Read offset correction : 685
Overread into Lead-In and Lead-Out : No
Used output format : Internal WAV Routines
                     44.100 Hz; 16 Bit; Stereo
Other options      :
    Fill up missing offset samples with silence : Yes
    Delete leading and trailing silent blocks : No
    Installed external ASPI interface
Range status and errors
Selected range
   Filename D:\Decoded Feedback - Bio-Vital\CDImage.wav
   Peak level 97.1 %
   Range quality 100.0 %
   CRC 94F42505
   Copy OK
No errors occured
End of status report
Код:
AUDIOCHECKER v2.0 beta (build 457) - by Dester - opdester@freemail.hu
~~~~~~~~~~~~~~~~~~~~~~~~~~~~~~~~~~
-=== DO NOT EDIT THIS FILE! ===-
Path: ...\Decoded Feedback - Bio-Vital
01 -=- CDImage.wav -=- CDDA (99%)
162884180
Код:
[Disc ID: 00168bf2-00c383d4-7f0cd20b]
Track [ CRC    ] Status
 01 [41aba708] (04/06) Accurately ripped as in pressing(s) #2
 02 [7922d015] (04/04) Accurately ripped as in pressing(s) #1
 03 [6aafd95e] (04/06) Accurately ripped as in pressing(s) #2
 04 [3e285007] (04/06) Accurately ripped as in pressing(s) #2
 05 [e3c33d07] (04/04) Accurately ripped as in pressing(s) #1
 06 [4a947f09] (04/04) Accurately ripped as in pressing(s) #1
 07 [d9dc2122] (04/04) Accurately ripped as in pressing(s) #1
 08 [157e4bae] (04/04) Accurately ripped as in pressing(s) #1
 09 [141e278f] (04/04) Accurately ripped as in pressing(s) #1
 10 [23f57c90] (04/04) Accurately ripped as in pressing(s) #1
 11 [162bd385] (03/05) Accurately ripped as in pressing(s) #2

Опять же старый рип, но рип хороший - с оригинала, все сходится и т.д. Правда сделан в те времена, когда сканера не у меня не было - посему хороших скан0FF нет.
Правила, инструкции, FAQ!!!
Торрент  Добавлен [26 июн 2020, 17:46] Скачать торрент Магнет ссылка
Скачать торрент
[ Размер 14.69 КБ / Просмотров 11 ]

Статус
Проверен 
 
Размер  357.01 МБ
Приватный: Нет (DHT включён)
.torrent скачан  0
 


     Отправить личное сообщение
   
Страница 1 из 1
Показать сообщения за:  Поле сортировки  
Начать новую тему Ответить на тему


Сейчас этот форум просматривают: нет зарегистрированных пользователей и гости: 0


Вы не можете начинать темы
Вы не можете отвечать на сообщения
Вы не можете редактировать свои сообщения
Вы не можете удалять свои сообщения
Вы не можете добавлять вложения

Перейти:  
cron