Начать новую тему Ответить на тему
Статистика раздачи
Размер: 498.81 МБ | Добавлен: 26 июн 2020, 19:04 | Скачали: 0
Сидеров: 0  [0 байт/сек]    Личеров: 0  [0 байт/сек]
Пред. тема | След. тема 

Автор
Сообщение

СообщениеДобавлено: 26 июн 2020, 19:04 

Ответить с цитатой 

Deathline International - Zarathoustra
Жанр: EBM, Electro, Industrial
Страна-производитель диска: Germany
Год издания диска: 1995
Издатель (лейбл): COP International, SPV GmbH
Номер по каталогу: COP CD017, SPV 84-34092
Страна: USA
Аудио кодек: FLAC (*.flac)
Тип рипа: tracks+.cue
Битрейт аудио: lossless
Продолжительность: 76:57
Источник (релизер): What.CD
Наличие сканов в содержимом раздачи: нет
Доп. информация: myspace
Треклист:
1. Sub Space Overture 1:54
2. Tainted Love 4:01
3. Brot Und Spiele 3:59
4. Time 6:48
5. Rawhide 4:03
6. Venus Dance Trap (Consolidated Remix) 4:59
7. Sometimes 5:02
8. Disease 3:56
9. Sacrifice / Rot 4:38
10. Circle Of Pain 5:17
11. Evil You Shun 3:41
12. Cutting Thin Blue Lines 5:20
13. Alone 6:36
14. Zarathoustra 3:30
15. War Chant Ma$chine (PCB Edit) 3:03
16. Open Your Eyes (Numb Remix) 4:02
17. Moan 6:08
Внимание! Все выложенные здесь материалы предоставлены исключительно в целях ознакомления! После ознакомления с материалами Вы обязаны их удалить! Если Вы хотите пользоваться данным материалом в дальнейшем – Вы должны приобрести лицензионный диск.
Лучшая ваша благодарность за раздачу - отзывы об альбоме!
Код:
Exact Audio Copy V0.99 prebeta 5 from 4. May 2009
EAC extraction logfile from 21. June 2010, 1:54
Deathline International / Zarathoustra
Used drive  : TSSTcorpCDDVDW SH-S223C   Adapter: 3  ID: 1
Read mode               : Secure
Utilize accurate stream : Yes
Defeat audio cache      : Yes
Make use of C2 pointers : No
Read offset correction                      : 697
Overread into Lead-In and Lead-Out          : No
Fill up missing offset samples with silence : Yes
Delete leading and trailing silent blocks   : No
Null samples used in CRC calculations       : Yes
Used interface                              : Native Win32 interface for Win NT & 2000
Gap handling                                : Appended to previous track
Used output format              : User Defined Encoder
Selected bitrate                : 192 kBit/s
Quality                         : High
Add ID3 tag                     : No
Command line compressor         : C:\Program Files (x86)\foobar2000\components\flac.exe
Additional command line options : -8 -V -T "ARTIST=%a" -T "TITLE=%t" -T "ALBUM=%g" -T "DATE=%y" -T "TRACKNUMBER=%n" -T "GENRE=%m" %s
TOC of the extracted CD
     Track |   Start  |  Length  | Start sector | End sector
    ---------------------------------------------------------
        1  |  0:00.00 |  1:53.50 |         0    |     8524
        2  |  1:53.50 |  4:01.15 |      8525    |    26614
        3  |  5:54.65 |  3:59.10 |     26615    |    44549
        4  |  9:54.00 |  6:48.25 |     44550    |    75174
        5  | 16:42.25 |  4:03.07 |     75175    |    93406
        6  | 20:45.32 |  4:59.18 |     93407    |   115849
        7  | 25:44.50 |  5:02.20 |    115850    |   138519
        8  | 30:46.70 |  3:56.17 |    138520    |   156236
        9  | 34:43.12 |  4:37.63 |    156237    |   177074
       10  | 39:21.00 |  5:17.00 |    177075    |   200849
       11  | 44:38.00 |  3:41.05 |    200850    |   217429
       12  | 48:19.05 |  5:19.70 |    217430    |   241424
       13  | 53:39.00 |  6:35.50 |    241425    |   271099
       14  | 60:14.50 |  3:30.00 |    271100    |   286849
       15  | 63:44.50 |  3:02.50 |    286850    |   300549
       16  | 66:47.25 |  4:01.50 |    300550    |   318674
       17  | 70:49.00 |  6:07.62 |    318675    |   346261
Track  1
     Filename F:\FLACRIPS\Deathline International - 1995 - Zarathoustra\01 - Deathline International - Sub Space Overture.wav
     Pre-gap length  0:00:02.00
     Peak level 98.0 %
     Track quality 100.0 %
     Test CRC 5F70ABDF
     Copy CRC 5F70ABDF
     Accurately ripped (confidence 1)  [2257400F]
     Copy OK
Track  2
     Filename F:\FLACRIPS\Deathline International - 1995 - Zarathoustra\02 - Deathline International - Tainted Love.wav
     Peak level 98.0 %
     Track quality 100.0 %
     Test CRC D4CA9998
     Copy CRC D4CA9998
     Accurately ripped (confidence 1)  [7B54E0F5]
     Copy OK
Track  3
     Filename F:\FLACRIPS\Deathline International - 1995 - Zarathoustra\03 - Deathline International - Brot und Spiele.wav
     Peak level 99.2 %
     Track quality 100.0 %
     Test CRC 3B4A7C11
     Copy CRC 3B4A7C11
     Accurately ripped (confidence 1)  [1C5862C5]
     Copy OK
Track  4
     Filename F:\FLACRIPS\Deathline International - 1995 - Zarathoustra\04 - Deathline International - Time.wav
     Pre-gap length  0:00:01.10
     Peak level 98.2 %
     Track quality 100.0 %
     Test CRC 470EDC1D
     Copy CRC 470EDC1D
     Accurately ripped (confidence 1)  [DA9E225E]
     Copy OK
Track  5
     Filename F:\FLACRIPS\Deathline International - 1995 - Zarathoustra\05 - Deathline International - Rawhide.wav
     Pre-gap length  0:00:01.13
     Peak level 98.6 %
     Track quality 99.9 %
     Test CRC B17296CE
     Copy CRC B17296CE
     Accurately ripped (confidence 1)  [6EF3CEEA]
     Copy OK
Track  6
     Filename F:\FLACRIPS\Deathline International - 1995 - Zarathoustra\06 - Deathline International - Venus Dance Trip (Consolidated Remix).wav
     Peak level 99.1 %
     Track quality 100.0 %
     Test CRC 914A65CF
     Copy CRC 914A65CF
     Accurately ripped (confidence 1)  [07A7D44B]
     Copy OK
Track  7
     Filename F:\FLACRIPS\Deathline International - 1995 - Zarathoustra\07 - Deathline International - Sometimes.wav
     Pre-gap length  0:00:00.65
     Peak level 99.5 %
     Track quality 100.0 %
     Test CRC 95E4E8FB
     Copy CRC 95E4E8FB
     Accurately ripped (confidence 1)  [D1B4C950]
     Copy OK
Track  8
     Filename F:\FLACRIPS\Deathline International - 1995 - Zarathoustra\08 - Deathline International - Disease.wav
     Peak level 89.1 %
     Track quality 100.0 %
     Test CRC C61442C2
     Copy CRC C61442C2
     Accurately ripped (confidence 1)  [28FAB757]
     Copy OK
Track  9
     Filename F:\FLACRIPS\Deathline International - 1995 - Zarathoustra\09 - Deathline International - Sacrifice , Rot.wav
     Peak level 97.7 %
     Track quality 100.0 %
     Test CRC A0775806
     Copy CRC A0775806
     Accurately ripped (confidence 1)  [FE344927]
     Copy OK
Track 10
     Filename F:\FLACRIPS\Deathline International - 1995 - Zarathoustra\10 - Deathline International - Circle of Pain.wav
     Pre-gap length  0:00:00.55
     Peak level 96.6 %
     Track quality 100.0 %
     Test CRC 0B5AAD31
     Copy CRC 0B5AAD31
     Accurately ripped (confidence 1)  [573C7546]
     Copy OK
Track 11
     Filename F:\FLACRIPS\Deathline International - 1995 - Zarathoustra\11 - Deathline International - Evil You Shun.wav
     Pre-gap length  0:00:00.53
     Peak level 99.0 %
     Track quality 100.0 %
     Test CRC BD1ACDE0
     Copy CRC BD1ACDE0
     Accurately ripped (confidence 1)  [FAD728D4]
     Copy OK
Track 12
     Filename F:\FLACRIPS\Deathline International - 1995 - Zarathoustra\12 - Deathline International - Cutting Thin Blue Lines.wav
     Pre-gap length  0:00:00.01
     Peak level 99.8 %
     Track quality 100.0 %
     Test CRC 1161938D
     Copy CRC 1161938D
     Accurately ripped (confidence 1)  [EAC21055]
     Copy OK
Track 13
     Filename F:\FLACRIPS\Deathline International - 1995 - Zarathoustra\13 - Deathline International - Alone.wav
     Pre-gap length  0:00:00.30
     Peak level 100.0 %
     Track quality 100.0 %
     Test CRC 03152ADF
     Copy CRC 03152ADF
     Accurately ripped (confidence 1)  [F2DE31E1]
     Copy OK
Track 14
     Filename F:\FLACRIPS\Deathline International - 1995 - Zarathoustra\14 - Deathline International - Zarathoustra.wav
     Pre-gap length  0:00:00.23
     Peak level 100.0 %
     Track quality 100.0 %
     Test CRC 86C73D44
     Copy CRC 86C73D44
     Accurately ripped (confidence 1)  [05BB5092]
     Copy OK
Track 15
     Filename F:\FLACRIPS\Deathline International - 1995 - Zarathoustra\15 - Deathline International - War Chant Ma$chine (PCB Edit).wav
     Peak level 99.8 %
     Track quality 100.0 %
     Test CRC C28D8287
     Copy CRC C28D8287
     Accurately ripped (confidence 1)  [D3A7EF06]
     Copy OK
Track 16
     Filename F:\FLACRIPS\Deathline International - 1995 - Zarathoustra\16 - Deathline International - Open Your Eyes (Numb Remix).wav
     Pre-gap length  0:00:00.48
     Peak level 98.9 %
     Track quality 100.0 %
     Test CRC 06F65261
     Copy CRC 06F65261
     Accurately ripped (confidence 1)  [66BE7CF2]
     Copy OK
Track 17
     Filename F:\FLACRIPS\Deathline International - 1995 - Zarathoustra\17 - Deathline International - Moan.wav
     Pre-gap length  0:00:00.28
     Peak level 97.9 %
     Track quality 100.0 %
     Test CRC 846436C8
     Copy CRC 846436C8
     Accurately ripped (confidence 1)  [DF3F7149]
     Copy OK
All tracks accurately ripped
No errors occurred
End of status report
Код:
REM GENRE Industrial
REM DATE 1995
REM DISCID E0120811
REM COMMENT "ExactAudioCopy v0.99pb5"
PERFORMER "Deathline International"
TITLE "Zarathoustra"
FILE "01 - Deathline International - Sub Space Overture.wav" WAVE
  TRACK 01 AUDIO
    TITLE "Sub Space Overture"
    PERFORMER "Deathline International"
    INDEX 01 00:00:00
FILE "02 - Deathline International - Tainted Love.wav" WAVE
  TRACK 02 AUDIO
    TITLE "Tainted Love"
    PERFORMER "Deathline International"
    INDEX 01 00:00:00
FILE "03 - Deathline International - Brot und Spiele.wav" WAVE
  TRACK 03 AUDIO
    TITLE "Brot und Spiele"
    PERFORMER "Deathline International"
    INDEX 01 00:00:00
  TRACK 04 AUDIO
    TITLE "Time"
    PERFORMER "Deathline International"
    INDEX 00 03:58:00
FILE "04 - Deathline International - Time.wav" WAVE
    INDEX 01 00:00:00
  TRACK 05 AUDIO
    TITLE "Rawhide"
    PERFORMER "Deathline International"
    INDEX 00 06:47:12
FILE "05 - Deathline International - Rawhide.wav" WAVE
    INDEX 01 00:00:00
FILE "06 - Deathline International - Venus Dance Trip (Consolidated Remix).wav" WAVE
  TRACK 06 AUDIO
    TITLE "Venus Dance Trip (Consolidated Remix)"
    PERFORMER "Deathline International"
    INDEX 01 00:00:00
  TRACK 07 AUDIO
    TITLE "Sometimes"
    PERFORMER "Deathline International"
    INDEX 00 04:58:28
FILE "07 - Deathline International - Sometimes.wav" WAVE
    INDEX 01 00:00:00
FILE "08 - Deathline International - Disease.wav" WAVE
  TRACK 08 AUDIO
    TITLE "Disease"
    PERFORMER "Deathline International"
    INDEX 01 00:00:00
FILE "09 - Deathline International - Sacrifice , Rot.wav" WAVE
  TRACK 09 AUDIO
    TITLE "Sacrifice / Rot"
    PERFORMER "Deathline International"
    INDEX 01 00:00:00
  TRACK 10 AUDIO
    TITLE "Circle of Pain"
    PERFORMER "Deathline International"
    INDEX 00 04:37:08
FILE "10 - Deathline International - Circle of Pain.wav" WAVE
    INDEX 01 00:00:00
  TRACK 11 AUDIO
    TITLE "Evil You Shun"
    PERFORMER "Deathline International"
    INDEX 00 05:16:22
FILE "11 - Deathline International - Evil You Shun.wav" WAVE
    INDEX 01 00:00:00
  TRACK 12 AUDIO
    TITLE "Cutting Thin Blue Lines"
    PERFORMER "Deathline International"
    INDEX 00 03:41:04
FILE "12 - Deathline International - Cutting Thin Blue Lines.wav" WAVE
    INDEX 01 00:00:00
  TRACK 13 AUDIO
    TITLE "Alone"
    PERFORMER "Deathline International"
    INDEX 00 05:19:40
FILE "13 - Deathline International - Alone.wav" WAVE
    INDEX 01 00:00:00
  TRACK 14 AUDIO
    TITLE "Zarathoustra"
    PERFORMER "Deathline International"
    INDEX 00 06:35:27
FILE "14 - Deathline International - Zarathoustra.wav" WAVE
    INDEX 01 00:00:00
FILE "15 - Deathline International - War Chant Ma$chine (PCB Edit).wav" WAVE
  TRACK 15 AUDIO
    TITLE "War Chant Ma$chine (PCB Edit)"
    PERFORMER "Deathline International"
    INDEX 01 00:00:00
  TRACK 16 AUDIO
    TITLE "Open Your Eyes (Numb Remix)"
    PERFORMER "Deathline International"
    INDEX 00 03:02:02
FILE "16 - Deathline International - Open Your Eyes (Numb Remix).wav" WAVE
    INDEX 01 00:00:00
  TRACK 17 AUDIO
    TITLE "Moan"
    PERFORMER "Deathline International"
    INDEX 00 04:01:22
FILE "17 - Deathline International - Moan.wav" WAVE
    INDEX 01 00:00:00



1992 - DLI was born in San Francisco with its first appearance on CyberCore Compilation, and a few shows on the west coast. Conclusion - Heh! - This is fun!!
1993 - The first album "Reality Check" receives rave reviews and lots of airplay, a total of 15 musicians were involved.
1994 - "Venus Mind Trap" EP, the "Rawhide" cover version is an instant succes in the US clubs - YEAH!!
1995 - "Zarathoustra" is created with the help of Mark Pistel [meat beat manifesto] & Don Gordon [Numb]. It hits the CMJ DJ & Alternative Charts, and the band happily plays the US & Germany.
1996 - TIME OUT [clouds on the horizon]
1997 - "Arashi Syndrome" is extremly well-received and charts in the US [ CMJ RPM Charts #5 / CMJ Top 200 #83 ] as well as Germany [ DAC Charts #12 ]. Breakup between Spawn & Count 0 (the main songwriting team). The Count forms a brand new lineup and takes DLI on the road in Germany with GIRLS UNDER GLASS.
1998 - The Count takes a nap and does production [Soil & Eclipse, The Razor Skyline, Pulse Legion].
1999 - The Count meets the Man M.O. himself, they love working with each other and start writing the new album.
2000 - Recording of CYBRID at the Fringe Studios / Oakland. Barbie [MATTEL] hires the band to do a soundtrack for the game "Rock'em Sock'em", based on a classic piece of Americana. It shipped in Nov. 2000. The SONY Playstation guys loved the music.
2001 - West coast tour to break in the new team. Release of CYBRID followed by USA / European Tour. The Count gets deported and sits on his hands in Europe while the rest of the gang writes petitions to the President.
2002 - Back in the USA shows on the west coast conceptualizing the new album.
2003 - First attempts to write new material, slowly a picture starts to emerge.
2004 - The Count relocates to the US and things start to speed up. GW Childs from Soil & Eclipse offers to help out and is gladly accepted into the DLI Crew. Songwriting starts in earnest. Schedule: wrap this up by the end of the year, test drive it on the road and release "Pax Americana" in Spring 2005.
* Кристиан Петке (Count Zero)
* Эрик Готтесмен (Eric Gottesman)
* Анджела Гудман (Ioejecta)
* Мариша Лэндхардт (Marisa Lenhardt)
* Шон Брайс(Shawn Brice)
* Стив Лэм (Steve Lam)
Правила, инструкции, FAQ!!!
Торрент  Добавлен [26 июн 2020, 19:04] Скачать торрент Магнет ссылка
Скачать торрент
[ Размер 21.65 КБ / Просмотров 8 ]

Статус
Проверен 
 
Размер  498.81 МБ
Приватный: Нет (DHT включён)
.torrent скачан  0
 


     Отправить личное сообщение
   
Страница 1 из 1
Показать сообщения за:  Поле сортировки  
Начать новую тему Ответить на тему


Сейчас этот форум просматривают: нет зарегистрированных пользователей и гости: 0


Вы не можете начинать темы
Вы не можете отвечать на сообщения
Вы не можете редактировать свои сообщения
Вы не можете удалять свои сообщения
Вы не можете добавлять вложения

Перейти:  
cron