Начать новую тему Ответить на тему
Статистика раздачи
Размер: 353.81 МБ | Добавлен: 26 июн 2020, 16:53 | Скачали: 0
Сидеров: 0  [0 байт/сек]    Личеров: 0  [0 байт/сек]
Пред. тема | След. тема 

Автор
Сообщение

СообщениеДобавлено: 26 июн 2020, 16:53 

Ответить с цитатой 

Dead Language - A Million Tiny Suns
Жанр: EBM, Electro, Industrial
Носитель: CD
Страна-производитель диска: U.S.
Год издания: 2001
Издатель (лейбл): Arts Industria
Номер по каталогу: AI027
Страна: U.S.
Аудиокодек: FLAC (*.flac)
Тип рипа: image+.cue
Битрейт аудио: lossless
Продолжительность: 00:57:30
Источник (релизер): CD, Rekhyt
Наличие сканов в содержимом раздачи: нет
Треклист:
1. Ice (4:57)
2. Reprogram (3:41)
3. Sunrise (5:15)
4. Binary MKII (2:19)
5. Interline (2:28)
6. Optik (5:07)
7. Binary MKI (4:43)
8. Fluorocarbon (2:50)
9. Incinerator (2:42)
10. Eaten (2:22)
11. Panik (3:23)
12. Interline v2 (4:48)
13. Black Rain MKII (4:42)
14. Refraktal (4:33)
15. Emotionless (3:40)
Код:
Exact Audio Copy V1.0 beta 3 from 29. August 2011
EAC extraction logfile from 28. February 2013, 13:31
Dead Language / A Million Tiny Suns
Used drive  : ATAPI   iHAS424   B   Adapter: 0  ID: 0
Read mode               : Secure
Utilize accurate stream : Yes
Defeat audio cache      : Yes
Make use of C2 pointers : No
Read offset correction                      : 6
Overread into Lead-In and Lead-Out          : No
Fill up missing offset samples with silence : Yes
Delete leading and trailing silent blocks   : No
Null samples used in CRC calculations       : Yes
Used interface                              : Native Win32 interface for Win NT & 2000
Used output format              : User Defined Encoder
Selected bitrate                : 1024 kBit/s
Quality                         : High
Add ID3 tag                     : No
Command line compressor         : C:\Program Files (x86)\Exact Audio Copy\FLAC\FLAC.EXE
Additional command line options : -8 -V -T "ARTIST=%artist%" -T "TITLE=%title%" -T "ALBUM=%albumtitle%" -T "DATE=%year%" -T "TRACKNUMBER=%tracknr1%" -T "TOTALTRACKS=%numtracks%" -T "COMMENT=%comment%" %source% -o %dest%
TOC of the extracted CD
     Track |   Start  |  Length  | Start sector | End sector
    ---------------------------------------------------------
        1  |  0:00.00 |  4:56.60 |         0    |    22259
        2  |  4:56.60 |  3:40.42 |     22260    |    38801
        3  |  8:37.27 |  5:14.60 |     38802    |    62411
        4  | 13:52.12 |  2:19.18 |     62412    |    72854
        5  | 16:11.30 |  2:28.30 |     72855    |    83984
        6  | 18:39.60 |  5:07.25 |     83985    |   107034
        7  | 23:47.10 |  4:42.55 |    107035    |   128239
        8  | 28:29.65 |  2:49.45 |    128240    |   140959
        9  | 31:19.35 |  2:41.60 |    140960    |   153094
       10  | 34:01.20 |  2:22.17 |    153095    |   163761
       11  | 36:23.37 |  3:22.70 |    163762    |   178981
       12  | 39:46.32 |  4:48.10 |    178982    |   200591
       13  | 44:34.42 |  4:42.25 |    200592    |   221766
       14  | 49:16.67 |  4:33.25 |    221767    |   242266
       15  | 53:50.17 |  3:39.53 |    242267    |   258744
Range status and errors
Selected range
     Filename E:\Downloads\Dead Language\Dead Language - A Million Tiny Suns (2001)\Dead Language - A Million Tiny Suns.wav
     Peak level 96.6 %
     Extraction speed 5.6 X
     Range quality 100.0 %
     Test CRC 41B167B1
     Copy CRC 41B167B1
     Copy OK
No errors occurred
AccurateRip summary
Track  1  not present in database
Track  2  not present in database
Track  3  not present in database
Track  4  not present in database
Track  5  not present in database
Track  6  not present in database
Track  7  not present in database
Track  8  not present in database
Track  9  not present in database
Track 10  not present in database
Track 11  not present in database
Track 12  not present in database
Track 13  not present in database
Track 14  not present in database
Track 15  not present in database
None of the tracks are present in the AccurateRip database
End of status report
---- CUETools DB Plugin V2.1.3
[CTDB TOCID: pbtSKzSqOhURIm8xcPVKbK2PFUM-] found, Submit result: already submitted
[dbb6c52b] (1/1) Accurately ripped
==== Log checksum 475E5B6A1C75A7F95CDE6839B979E5D7AC86F2AE38D72EF0A6A14DDAB97417FC ====
Код:
REM DATE 2001
REM DISCID DC0D790F
REM COMMENT "ExactAudioCopy v1.0b3"
PERFORMER "Dead Language"
TITLE "A Million Tiny Suns"
FILE "Dead Language - A Million Tiny Suns.flac" WAVE
  TRACK 01 AUDIO
    TITLE "Ice"
    PERFORMER "Dead Language"
    INDEX 01 00:00:00
  TRACK 02 AUDIO
    TITLE "Reprogram"
    PERFORMER "Dead Language"
    INDEX 00 04:53:62
    INDEX 01 04:56:60
  TRACK 03 AUDIO
    TITLE "Sunrise"
    PERFORMER "Dead Language"
    INDEX 00 08:34:30
    INDEX 01 08:37:27
  TRACK 04 AUDIO
    TITLE "Binary MKII"
    PERFORMER "Dead Language"
    INDEX 00 13:49:15
    INDEX 01 13:52:12
  TRACK 05 AUDIO
    TITLE "Interline v1"
    PERFORMER "Dead Language"
    INDEX 00 16:08:32
    INDEX 01 16:11:30
  TRACK 06 AUDIO
    TITLE "Optik"
    PERFORMER "Dead Language"
    INDEX 00 18:36:62
    INDEX 01 18:39:60
  TRACK 07 AUDIO
    TITLE "Binary MKI"
    PERFORMER "Dead Language"
    INDEX 00 23:44:12
    INDEX 01 23:47:10
  TRACK 08 AUDIO
    TITLE "Fluorocarbon MKII"
    PERFORMER "Dead Language"
    INDEX 00 28:26:65
    INDEX 01 28:29:65
  TRACK 09 AUDIO
    TITLE "Incinerator"
    PERFORMER "Dead Language"
    INDEX 00 31:16:37
    INDEX 01 31:19:35
  TRACK 10 AUDIO
    TITLE "Eaten"
    PERFORMER "Dead Language"
    INDEX 00 33:58:22
    INDEX 01 34:01:20
  TRACK 11 AUDIO
    TITLE "Panik"
    PERFORMER "Dead Language"
    INDEX 00 36:20:40
    INDEX 01 36:23:37
  TRACK 12 AUDIO
    TITLE "Interline v2"
    PERFORMER "Dead Language"
    INDEX 00 39:43:34
    INDEX 01 39:46:32
  TRACK 13 AUDIO
    TITLE "Black Rain MKII"
    PERFORMER "Dead Language"
    INDEX 00 42:34:45
    INDEX 01 44:34:42
  TRACK 14 AUDIO
    TITLE "Refraktal"
    PERFORMER "Dead Language"
    INDEX 00 49:13:70
    INDEX 01 49:16:67
  TRACK 15 AUDIO
    TITLE "Emotionless"
    PERFORMER "Dead Language"
    INDEX 00 53:47:20
    INDEX 01 53:50:17
Код:
AUDIOCHECKER v2.0 beta (build 457) - by Dester - opdester@freemail.hu
~~~~~~~~~~~~~~~~~~~~~~~~~~~~~~~~~~
-=== DO NOT EDIT THIS FILE! ===-
Path: ...\Dead Language - A Million Tiny Suns (2001)
1 -=- Dead Language - A Million Tiny Suns.flac -=- CDDA (99%)
61814340
http://www.discogs.com/artist/Dead+Language (manually put in URL / вручную положить в URL)
http://www.discogs.com/Dead-Language-A-Million-Tiny-Suns/release/803005 (manually put in URL / вручную положить в URL)
Правила, инструкции, FAQ!!!
Торрент  Добавлен [26 июн 2020, 16:53] Скачать торрент Магнет ссылка
Скачать торрент
[ Размер 14.54 КБ / Просмотров 5 ]

Статус
Проверен 
 
Размер  353.81 МБ
Приватный: Нет (DHT включён)
.torrent скачан  0
 


     Отправить личное сообщение
   
Страница 1 из 1
Показать сообщения за:  Поле сортировки  
Начать новую тему Ответить на тему


Сейчас этот форум просматривают: нет зарегистрированных пользователей и гости: 0


Вы не можете начинать темы
Вы не можете отвечать на сообщения
Вы не можете редактировать свои сообщения
Вы не можете удалять свои сообщения
Вы не можете добавлять вложения

Перейти:  
cron