Начать новую тему Ответить на тему
Статистика раздачи
Размер: 290.86 МБ | Добавлен: 26 июн 2020, 20:04 | Скачали: 0
Сидеров: 0  [0 байт/сек]    Личеров: 0  [0 байт/сек]
Пред. тема | След. тема 

Автор
Сообщение

СообщениеДобавлено: 26 июн 2020, 20:04 

Ответить с цитатой 

DBS (Deutsche Berittene Spetsnaz) - Only DBS Is Pure Bodybilly
Жанр: EBM, Electro
Год выпуска диска: 2008
Производитель диска: Trisol Music Group, Germany
Аудио кодек: FLAC
Тип рипа: image+.cue
Битрейт аудио: lossless
Продолжительность: 0:43:00.48
Треклист:
01. Intro 0:20
02. Schildkroete 4:29
03. Die Tanzenschule 3:40
04. Bodybilly 3:09
05. Cabaret 3:51
06. Frueh Am Morgen 3:41
07. Geisterstadt 3:28
08. Old #7 3:14
09. Imperator 4:35
10. Das Gefühl (Dissonanz 03 Remix) 4:16
11. Electronic Formation (Magik Brite Remix) 4:05
12. Herr Major 4:12
Доп. информация: CD из личной коллекции.
#777Московская electro группа DBS - Немецкий Конный Спецназ (именно так переводится название группы) была основана 2006 году. В группе всего два человека, два московских деятеля электро и готической субкультуры, известные обществу как 54 и GoshaFiend. В музыке ребята постарались совместить ритмы классического электро и old school EBM мотивы. Тексты песен московских электронщиков посвящены полумифическому персонажу, известному как «Герр Майор». Музыка DBS - это добротное электро.
Код:
Exact Audio Copy V0.99 prebeta 5 from 4. May 2009
Отчёт EAC об извлечении, выполненном 31. августа 2010, 21:14
DBS / Only DBS Is Pure Bodybilly
Дисковод: TSSTcorpCDDVDW TS-L632H   Adapter: 0  ID: 0
Режим чтения                 : Достоверность
Использование точного потока : Да
Отключение кэша аудио        : Да
Использование указателей C2  : Нет
Коррекция смещения при чтении                     : 6
Способность читать области Lead-in и Lead-out     : Нет
Заполнение пропущенных сэмплов тишиной            : Да
Удаление блоков с тишиной в начале и конце        : Нет
При вычислениях CRC использовались нулевые сэмплы : Да
Интерфейс                                         : Встроенный Win32-интерфейс для Win NT/2000
Выходной формат          : Пользовательский кодировщик
Выбранный битрейт        : 1024 kBit/s
Качество                 : Высокий
Добавление ID3-тэга      : Нет
Утилита сжатия           : C:\Program Files\Exact Audio Copy\FLAC\FLAC.EXE
Дополнительные параметры : -6 -V -T "ARTIST=%a" -T "TITLE=%t" -T "ALBUM=%g" -T "DATE=%y" -T "TRACKNUMBER=%n" -T "GENRE=%m" -T "COMMENT=%e" %s -o %d
TOC извлечённого CD
     Трек |   Старт  | Длительность | Начальный сектор | Конечный сектор
    ---------------------------------------------------------------------
       1  |  0:00.00 |    0:19.74   |           0      |       1498
       2  |  0:19.74 |    4:29.32   |        1499      |      21705
       3  |  4:49.31 |    3:39.45   |       21706      |      38175
       4  |  8:29.01 |    3:08.64   |       38176      |      52339
       5  | 11:37.65 |    3:50.69   |       52340      |      69658
       6  | 15:28.59 |    3:41.15   |       69659      |      86248
       7  | 19:09.74 |    3:27.40   |       86249      |     101813
       8  | 22:37.39 |    3:14.00   |      101814      |     116363
       9  | 25:51.39 |    4:35.33   |      116364      |     137021
      10  | 30:26.72 |    4:16.37   |      137022      |     156258
      11  | 34:43.34 |    4:05.15   |      156259      |     174648
      12  | 38:48.49 |    4:11.74   |      174649      |     193547
Характеристики диапазона извлечения и сообщения об ошибках
Выбранный диапазон
     Имя файла C:\Users\Алексей\Desktop\iPOD\DBS - Only DBS Is Pure Bodybilly.wav
     Пиковый уровень 99.8 %
     Качество диапазона 100.0 %
     CRC теста F0AFB17B
     CRC копии F0AFB17B
     Копирование... OK
Ошибок не произошло
AccurateRip: сводка
Трек  1  нет в базе данных
Трек  2  нет в базе данных
Трек  3  нет в базе данных
Трек  4  нет в базе данных
Трек  5  нет в базе данных
Трек  6  нет в базе данных
Трек  7  нет в базе данных
Трек  8  нет в базе данных
Трек  9  нет в базе данных
Трек 10  нет в базе данных
Трек 11  нет в базе данных
Трек 12  нет в базе данных
Ни одного трека нет в базе AccurateRip
Конец отчёта
Код:
REM GENRE "Electronic "
REM DATE 2008
REM DISCID 8E0A140C
REM COMMENT "ExactAudioCopy v0.99pb5"
PERFORMER "DBS"
TITLE "Only DBS Is Pure Bodybilly"
FILE "DBS - Only DBS Is Pure Bodybilly.flac" WAVE
  TRACK 01 AUDIO
    TITLE "Intro"
    PERFORMER "DBS"
    INDEX 01 00:00:00
  TRACK 02 AUDIO
    TITLE "Schildkroete"
    PERFORMER "DBS"
    INDEX 01 00:19:74
  TRACK 03 AUDIO
    TITLE "Die Tanzschule"
    PERFORMER "DBS"
    INDEX 01 04:49:31
  TRACK 04 AUDIO
    TITLE "Bodybilly"
    PERFORMER "DBS"
    INDEX 01 08:29:01
  TRACK 05 AUDIO
    TITLE "Cabaret"
    PERFORMER "DBS"
    INDEX 01 11:37:65
  TRACK 06 AUDIO
    TITLE "Frueh amMorgen"
    PERFORMER "DBS"
    INDEX 01 15:28:59
  TRACK 07 AUDIO
    TITLE "Geisterstadt"
    PERFORMER "DBS"
    INDEX 01 19:09:74
  TRACK 08 AUDIO
    TITLE "Old # 7"
    PERFORMER "DBS"
    INDEX 01 22:37:39
  TRACK 09 AUDIO
    TITLE "Imperator"
    PERFORMER "DBS"
    INDEX 01 25:51:39
  TRACK 10 AUDIO
    TITLE "Das Gefuhl (Dissonanz 03 Remix)"
    PERFORMER "DBS"
    INDEX 01 30:26:72
  TRACK 11 AUDIO
    TITLE "Electronic Formation (Magic Brite Remix)"
    PERFORMER "DBS"
    INDEX 01 34:43:34
  TRACK 12 AUDIO
    TITLE "Herr Major (bonus track)"
    PERFORMER "DBS"
    INDEX 01 38:48:49
Правила, инструкции, FAQ!!!
Торрент  Добавлен [26 июн 2020, 20:04] Скачать торрент Магнет ссылка
Скачать торрент
[ Размер 12 КБ / Просмотров 9 ]

Статус
Проверен 
 
Размер  290.86 МБ
Приватный: Нет (DHT включён)
.torrent скачан  0
 


     Отправить личное сообщение
   
Страница 1 из 1
Показать сообщения за:  Поле сортировки  
Начать новую тему Ответить на тему


Сейчас этот форум просматривают: нет зарегистрированных пользователей и гости: 0


Вы не можете начинать темы
Вы не можете отвечать на сообщения
Вы не можете редактировать свои сообщения
Вы не можете удалять свои сообщения
Вы не можете добавлять вложения

Перейти:  
cron