Начать новую тему Ответить на тему
Статистика раздачи
Размер: 580.77 МБ | Добавлен: 26 июн 2020, 17:56 | Скачали: 0
Сидеров: 2  [0 байт/сек]    Личеров: 1  [0 байт/сек]
Пред. тема | След. тема 

Автор
Сообщение

СообщениеДобавлено: 26 июн 2020, 17:56 

Ответить с цитатой 

davaNtage / Over The Pass
Жанр: EBM, Electro, Industrial
Носитель: CD
Страна-производитель диска (релиза): Россия
Год издания: 2008
Издатель (лейбл): Gravitator Records
Номер по каталогу: GRR 069
Страна исполнителя (группы): Германия
Аудиокодек: FLAC (*.flac)
Тип рипа: image+.cue
Битрейт аудио: lossless
Продолжительность: 77:07
Источник (релизер): Собственный диск
Наличие сканов в содержимом раздачи: да
Треклист:
1. Playgrounds Of Nature
2. VF-07
3. Over The Pass
4. The End Of Raging Ecstasy
5. Trash Handling
6. The Club
7. Mars Is Waiting
8. Surface
9. Retaliate
10. Final Flare / Influx
11. Beyond The Hills (Dave Foreman Remix)
12. Unbelehrbar (Sebastian R. Komor Remix)
13. And Occident Is History (Acylum Remix)
Код:
Exact Audio Copy V1.1 from 23. June 2015
Отчёт EAC об извлечении, выполненном 15. августа 2016, 13:22
davaNtage / Over The Pass
Дисковод: HL-DT-STDVDRAM GSA-H10A   Adapter: 1  ID: 0
Режим чтения                 : Достоверность
Использование точного потока : Да
Отключение кэша аудио        : Да
Использование указателей C2  : Нет
Коррекция смещения при чтении                     : 667
Способность читать области Lead-in и Lead-out     : Нет
Заполнение пропущенных сэмплов тишиной            : Да
Удаление блоков с тишиной в начале и конце        : Нет
При вычислениях CRC использовались нулевые сэмплы : Да
Интерфейс                                         : Встроенный Win32-интерфейс для Win NT/2000
Выходной формат          : Пользовательский кодировщик
Выбранный битрейт        : 128 kBit/s
Качество                 : Высокий
Добавление ID3-тега      : Да
Утилита сжатия           : C:\Program Files\Exact Audio Copy\Flac\flac.exe
Дополнительные параметры : -V -8 -T "Date=%year%" -T "Genre=%genre%" %source%
TOC извлечённого CD
     Трек |   Старт  | Длительность | Начальный сектор | Конечный сектор
    ---------------------------------------------------------------------
       1  |  0:00.00 |    4:24.39   |           0      |      19838
       2  |  4:24.39 |    4:35.57   |       19839      |      40520
       3  |  9:00.21 |    6:14.12   |       40521      |      68582
       4  | 15:14.33 |    5:59.52   |       68583      |      95559
       5  | 21:14.10 |    4:11.68   |       95560      |     114452
       6  | 25:26.03 |    5:40.22   |      114453      |     139974
       7  | 31:06.25 |    6:11.72   |      139975      |     167871
       8  | 37:18.22 |    5:36.72   |      167872      |     193143
       9  | 42:55.19 |    6:52.73   |      193144      |     224116
      10  | 49:48.17 |   10:13.00   |      224117      |     270091
      11  | 60:01.17 |    6:25.44   |      270092      |     299010
      12  | 66:26.61 |    5:55.55   |      299011      |     325690
      13  | 72:22.41 |    4:44.06   |      325691      |     346996
Характеристики диапазона извлечения и сообщения об ошибках
Выбранный диапазон
     Имя файла D:\Music\davaNtage - 2008 - Over The Pass.wav
     Пиковый уровень 100.0 %
     Скорость извлечения 4.7 X
     Качество диапазона 100.0 %
     CRC теста E3407DB9
     CRC копии E3407DB9
     Копирование... OK
Ошибок не произошло
AccurateRip: сводка
Трек  1  : извлечено точно (доверие 1)  [FD39ED0C]  (AR v2)
Трек  2  : извлечено точно (доверие 1)  [DB0EB77D]  (AR v2)
Трек  3  : извлечено точно (доверие 1)  [D9EBF40F]  (AR v2)
Трек  4  : извлечено точно (доверие 1)  [8CF65A79]  (AR v2)
Трек  5  : извлечено точно (доверие 1)  [B0ED0BF8]  (AR v2)
Трек  6  : извлечено точно (доверие 1)  [9A57EE32]  (AR v2)
Трек  7  : извлечено точно (доверие 1)  [F959CD61]  (AR v2)
Трек  8  : извлечено точно (доверие 1)  [8BB14116]  (AR v2)
Трек  9  : извлечено точно (доверие 1)  [800F893F]  (AR v2)
Трек 10  : извлечено точно (доверие 1)  [519CDAC3]  (AR v2)
Трек 11  : извлечено точно (доверие 1)  [4ACCF006]  (AR v2)
Трек 12  : извлечено точно (доверие 1)  [04B25488]  (AR v2)
Трек 13  : извлечено точно (доверие 1)  [29AE21D3]  (AR v2)
Все треки извлечены точно
Конец отчёта
---- CUETools DB Plugin V2.1.6
[CTDB TOCID: pe_H.yyGnVHScGVo5Ud.AWt.ipc-] found
Submit result: pe_H.yyGnVHScGVo5Ud.AWt.ipc- has been confirmed
Track | CTDB Status
  1   | (1/1) Accurately ripped
  2   | (1/1) Accurately ripped
  3   | (1/1) Accurately ripped
  4   | (1/1) Accurately ripped
  5   | (1/1) Accurately ripped
  6   | (1/1) Accurately ripped
  7   | (1/1) Accurately ripped
  8   | (1/1) Accurately ripped
  9   | (1/1) Accurately ripped
 10   | (1/1) Accurately ripped
 11   | (1/1) Accurately ripped
 12   | (1/1) Accurately ripped
 13   | (1/1) Accurately ripped
Код:
REM DATE 2008
REM DISCID CA12120D
REM COMMENT "ExactAudioCopy v1.1"
PERFORMER "davaNtage"
TITLE "Over The Pass"
FILE "davaNtage - 2008 - Over The Pass.flac" WAVE
  TRACK 01 AUDIO
    TITLE "Playgrounds Of Nature"
    PERFORMER "davaNtage"
    INDEX 01 00:00:00
  TRACK 02 AUDIO
    TITLE "VF-07"
    PERFORMER "davaNtage"
    INDEX 00 04:22:39
    INDEX 01 04:24:39
  TRACK 03 AUDIO
    TITLE "Over The Pass"
    PERFORMER "davaNtage"
    INDEX 00 08:58:21
    INDEX 01 09:00:21
  TRACK 04 AUDIO
    TITLE "The End Of Raging Ecstasy"
    PERFORMER "davaNtage"
    INDEX 00 15:12:33
    INDEX 01 15:14:33
  TRACK 05 AUDIO
    TITLE "Trash Handling"
    PERFORMER "davaNtage"
    INDEX 00 21:13:41
    INDEX 01 21:14:10
  TRACK 06 AUDIO
    TITLE "The Club"
    PERFORMER "davaNtage"
    INDEX 00 25:25:03
    INDEX 01 25:26:03
  TRACK 07 AUDIO
    TITLE "Mars Is Waiting"
    PERFORMER "davaNtage"
    INDEX 00 31:05:25
    INDEX 01 31:06:25
  TRACK 08 AUDIO
    TITLE "Surface"
    PERFORMER "davaNtage"
    INDEX 00 37:17:22
    INDEX 01 37:18:22
  TRACK 09 AUDIO
    TITLE "Retaliate"
    PERFORMER "davaNtage"
    INDEX 00 42:54:19
    INDEX 01 42:55:19
  TRACK 10 AUDIO
    TITLE "Final Flare / Influx"
    PERFORMER "davaNtage"
    INDEX 01 49:48:17
  TRACK 11 AUDIO
    TITLE "Beyond The Hills (Dave Foreman Remix)"
    PERFORMER "davaNtage"
    INDEX 00 59:59:17
    INDEX 01 60:01:17
  TRACK 12 AUDIO
    TITLE "Unbelehrbar (Sebastian R. Komor Remix)"
    PERFORMER "davaNtage"
    INDEX 00 66:24:61
    INDEX 01 66:26:61
  TRACK 13 AUDIO
    TITLE "And Occident Is History (Acylum Remix)"
    PERFORMER "davaNtage"
    INDEX 00 72:20:41
    INDEX 01 72:22:41
Правила, инструкции, FAQ!!!
Торрент  Добавлен [26 июн 2020, 17:56] Скачать торрент Магнет ссылка
Скачать торрент
[ Размер 12.23 КБ / Просмотров 10 ]

Статус
Проверен 
 
Размер  580.77 МБ
Приватный: Нет (DHT включён)
.torrent скачан  0
 


     Отправить личное сообщение
   
Страница 1 из 1
Показать сообщения за:  Поле сортировки  
Начать новую тему Ответить на тему


Сейчас этот форум просматривают: нет зарегистрированных пользователей и гости: 0


Вы не можете начинать темы
Вы не можете отвечать на сообщения
Вы не можете редактировать свои сообщения
Вы не можете удалять свои сообщения
Вы не можете добавлять вложения

Перейти:  
cron