Начать новую тему Ответить на тему
Статистика раздачи
Размер: 493.54 МБ | Добавлен: 26 июн 2020, 19:46 | Скачали: 0
Сидеров: 0  [0 байт/сек]    Личеров: 0  [0 байт/сек]
Пред. тема | След. тема 

Автор
Сообщение

СообщениеДобавлено: 26 июн 2020, 19:46 

Ответить с цитатой 

Various Artists - Cyberworld II




Жанр: EBM, Electro, Industrial
Страна-производитель диска: Denmark
Год издания диска: 1994
Издатель (лейбл): Hard Records
Номер по каталогу: HARDEST 08
Аудиокодек: FLAC (*.flac)
Тип рипа: tracks+.cue
Битрейт аудио: lossless
Продолжительность: 01:15:09
Источник (релизер): what.cd
Наличие сканов в содержимом раздачи: нет
Треклист:
01. Max M - Cyberworld [3:45]
02. Apoptygma Berzerk – Backdraft [4:20]
03. Godheads – War Of Violence (Mixed By – Birmingham 6) [3:53]
04. Suiciety – Renegate [5:00]
05. Klute – They're Right, I'm Wrong [2:57]
06. Birmingham 6 – Contagious [5:27]
07. Dr. Baker – Turn Up The Music (Leather Bunny Mix) (Remix by Leæther Strip) [5:02]
08. Mind Resuscitate – Overloaded [5:14]
09. Oga Syndicate – Argon [8:24]
10. Institute For The Criminally Insane – Aquanoid [6:13]
11. In Absentia – Fuck-Die (Short & Kinky Disco Mix) [2:55]
12. Stereoids – Norman Bates [4:10]
13. Sloppy Wrenchbody – Cut Me Down (Freedom Remix) [4:38]
14. Citizen Nightmare – Tribe [4:34]
15. Koxbox – Birdy [8:14]
Код:
Exact Audio Copy V0.99 prebeta 4 from 23. January 2008
EAC extraction logfile from 9. April 2011, 8:12
Various Artists / Cyberworld II
Used drive  : TSSTcorpCDDVDW TS-L633C   Adapter: 1  ID: 0
Read mode               : Secure
Utilize accurate stream : Yes
Defeat audio cache      : Yes
Make use of C2 pointers : No
Read offset correction                      : 6
Overread into Lead-In and Lead-Out          : No
Fill up missing offset samples with silence : Yes
Delete leading and trailing silent blocks   : No
Null samples used in CRC calculations       : Yes
Used interface                              : Installed external ASPI interface
Gap handling                                : Appended to previous track
Used output format              : User Defined Encoder
Selected bitrate                : 768 kBit/s
Quality                         : High
Add ID3 tag                     : No
Command line compressor         : C:\Program Files\Exact Audio Copy\Flac\flac.exe
Additional command line options : -V -8 -T "ARTIST=%a" -T "TITLE=%t" -T "ALBUM=%g" -T "DATE=%y" -T "TRACKNUMBER=%n" -T "GENRE=%m" -T "COMMENT=%e" %s -o %d
TOC of the extracted CD
     Track |   Start  |  Length  | Start sector | End sector
    ---------------------------------------------------------
        1  |  0:00.33 |  3:47.22 |        33    |    17079
        2  |  3:47.55 |  4:22.53 |     17080    |    36782
        3  |  8:10.33 |  3:55.30 |     36783    |    54437
        4  | 12:05.63 |  4:58.70 |     54438    |    76857
        5  | 17:04.58 |  2:58.65 |     76858    |    90272
        6  | 20:03.48 |  5:27.65 |     90273    |   114862
        7  | 25:31.38 |  5:05.42 |    114863    |   137779
        8  | 30:37.05 |  5:07.08 |    137780    |   160812
        9  | 35:44.13 |  8:26.17 |    160813    |   198779
       10  | 44:10.30 |  6:14.53 |    198780    |   226882
       11  | 50:25.08 |  2:59.32 |    226883    |   240339
       12  | 53:24.40 |  4:12.60 |    240340    |   259299
       13  | 57:37.25 |  4:42.65 |    259300    |   280514
       14  | 62:20.15 |  4:35.08 |    280515    |   301147
       15  | 66:55.23 |  8:14.35 |    301148    |   338232
Track  1
     Filename Z:\eac.rips\Various - Cyberworld II (1994)\01 - Cyberworld.wav
     Pre-gap length  0:00:02.44
     Peak level 98.0 %
     Track quality 100.0 %
     Test CRC EF2A48C2
     Copy CRC EF2A48C2
     Accurately ripped (confidence 1)  [8AEDD862]
     Copy OK
Track  2
     Filename Z:\eac.rips\Various - Cyberworld II (1994)\02 - Backdraft.wav
     Pre-gap length  0:00:01.29
     Peak level 98.9 %
     Track quality 100.0 %
     Test CRC 85381AA8
     Copy CRC 85381AA8
     Accurately ripped (confidence 1)  [7CB8B446]
     Copy OK
Track  3
     Filename Z:\eac.rips\Various - Cyberworld II (1994)\03 - War of Violence.wav
     Pre-gap length  0:00:01.30
     Peak level 91.4 %
     Track quality 100.0 %
     Test CRC 0B05EB12
     Copy CRC 0B05EB12
     Accurately ripped (confidence 1)  [E5DDAB04]
     Copy OK
Track  4
     Filename Z:\eac.rips\Various - Cyberworld II (1994)\04 - Renegate.wav
     Pre-gap length  0:00:01.30
     Peak level 98.9 %
     Track quality 100.0 %
     Test CRC DBFC9866
     Copy CRC DBFC9866
     Accurately ripped (confidence 1)  [CFA3E268]
     Copy OK
Track  5
     Filename Z:\eac.rips\Various - Cyberworld II (1994)\05 - They're Right, I'm Wrong.wav
     Pre-gap length  0:00:00.13
     Peak level 84.7 %
     Track quality 100.0 %
     Test CRC 5F06F0B3
     Copy CRC 5F06F0B3
     Accurately ripped (confidence 1)  [F7EBAF01]
     Copy OK
Track  6
     Filename Z:\eac.rips\Various - Cyberworld II (1994)\06 - Contagious.wav
     Pre-gap length  0:00:00.97
     Peak level 91.3 %
     Track quality 100.0 %
     Test CRC E3B05420
     Copy CRC E3B05420
     Accurately ripped (confidence 1)  [1F12B8B0]
     Copy OK
Track  7
     Filename Z:\eac.rips\Various - Cyberworld II (1994)\07 - Turn Up the Music (Leather bunny mix).wav
     Pre-gap length  0:00:00.64
     Peak level 86.7 %
     Track quality 100.0 %
     Test CRC FD0C727E
     Copy CRC FD0C727E
     Accurately ripped (confidence 1)  [CCFFD316]
     Copy OK
Track  8
     Filename Z:\eac.rips\Various - Cyberworld II (1994)\08 - Overloaded.wav
     Pre-gap length  0:00:01.29
     Peak level 86.1 %
     Track quality 100.0 %
     Test CRC 2D4049A0
     Copy CRC 2D4049A0
     Accurately ripped (confidence 1)  [190421D0]
     Copy OK
Track  9
     Filename Z:\eac.rips\Various - Cyberworld II (1994)\09 - Argon.wav
     Pre-gap length  0:00:01.30
     Peak level 88.8 %
     Track quality 100.0 %
     Test CRC 286A8AFF
     Copy CRC 286A8AFF
     Accurately ripped (confidence 1)  [E18C52B9]
     Copy OK
Track 10
     Filename Z:\eac.rips\Various - Cyberworld II (1994)\10 - Aquanoid.wav
     Pre-gap length  0:00:01.29
     Peak level 95.2 %
     Track quality 100.0 %
     Test CRC FAC74900
     Copy CRC FAC74900
     Accurately ripped (confidence 1)  [5D74A2E5]
     Copy OK
Track 11
     Filename Z:\eac.rips\Various - Cyberworld II (1994)\11 - Fuck - Die (Short & Kinky Disco Mix).wav
     Pre-gap length  0:00:01.30
     Peak level 79.5 %
     Track quality 100.0 %
     Test CRC 5D0D8A24
     Copy CRC 5D0D8A24
     Accurately ripped (confidence 1)  [D44489BD]
     Copy OK
Track 12
     Filename Z:\eac.rips\Various - Cyberworld II (1994)\12 - Norman Bates.wav
     Pre-gap length  0:00:01.29
     Peak level 94.5 %
     Track quality 100.0 %
     Test CRC FC068A06
     Copy CRC FC068A06
     Accurately ripped (confidence 1)  [7C86EC61]
     Copy OK
Track 13
     Filename Z:\eac.rips\Various - Cyberworld II (1994)\13 - Cut Me Down (Freedom Remix).wav
     Pre-gap length  0:00:01.29
     Peak level 98.9 %
     Track quality 100.0 %
     Test CRC 129F0551
     Copy CRC 129F0551
     Accurately ripped (confidence 1)  [3016EF2F]
     Copy OK
Track 14
     Filename Z:\eac.rips\Various - Cyberworld II (1994)\14 - Tribe.wav
     Pre-gap length  0:00:01.29
     Peak level 93.7 %
     Track quality 100.0 %
     Test CRC A7978622
     Copy CRC A7978622
     Accurately ripped (confidence 1)  [CF46A9AF]
     Copy OK
Track 15
     Filename Z:\eac.rips\Various - Cyberworld II (1994)\15 - Birdy.wav
     Pre-gap length  0:00:01.26
     Peak level 93.8 %
     Track quality 99.9 %
     Test CRC 5DEBEFFD
     Copy CRC 5DEBEFFD
     Cannot be verified as accurate (confidence 1)  [CDBC9A65], AccurateRip returned [6832D83D]
     Copy OK
14 track(s) accurately ripped
 1 track(s) could not be verified as accurate
Some tracks could not be verified as accurate
No errors occurred
End of status report
Код:
REM GENRE Industrial
REM DATE 1994
REM DISCID C4119D0F
REM COMMENT "ExactAudioCopy v0.99pb4"
FILE "01 - Cyberworld.wav" WAVE
  TRACK 01 AUDIO
    PREGAP 00:00:33
    INDEX 01 00:00:00
  TRACK 02 AUDIO
    INDEX 00 03:46:00
FILE "02 - Backdraft.wav" WAVE
    INDEX 01 00:00:00
  TRACK 03 AUDIO
    INDEX 00 04:21:30
FILE "03 - War of Violence.wav" WAVE
    INDEX 01 00:00:00
  TRACK 04 AUDIO
    INDEX 00 03:54:07
FILE "04 - Renegate.wav" WAVE
    INDEX 01 00:00:00
  TRACK 05 AUDIO
    INDEX 00 04:58:60
FILE "05 - They're Right, I'm Wrong.wav" WAVE
    INDEX 01 00:00:00
  TRACK 06 AUDIO
    INDEX 00 02:57:67
FILE "06 - Contagious.wav" WAVE
    INDEX 01 00:00:00
  TRACK 07 AUDIO
    INDEX 00 05:27:17
FILE "07 - Turn Up the Music (Leather bunny mix).wav" WAVE
    INDEX 01 00:00:00
  TRACK 08 AUDIO
    INDEX 00 05:04:20
FILE "08 - Overloaded.wav" WAVE
    INDEX 01 00:00:00
  TRACK 09 AUDIO
    INDEX 00 05:05:60
FILE "09 - Argon.wav" WAVE
    INDEX 01 00:00:00
  TRACK 10 AUDIO
    INDEX 00 08:24:70
FILE "10 - Aquanoid.wav" WAVE
    INDEX 01 00:00:00
  TRACK 11 AUDIO
    INDEX 00 06:13:30
FILE "11 - Fuck - Die (Short & Kinky Disco Mix).wav" WAVE
    INDEX 01 00:00:00
  TRACK 12 AUDIO
    INDEX 00 02:58:10
FILE "12 - Norman Bates.wav" WAVE
    INDEX 01 00:00:00
  TRACK 13 AUDIO
    INDEX 00 04:11:38
FILE "13 - Cut Me Down (Freedom Remix).wav" WAVE
    INDEX 01 00:00:00
  TRACK 14 AUDIO
    INDEX 00 04:41:43
FILE "14 - Tribe.wav" WAVE
    INDEX 01 00:00:00
  TRACK 15 AUDIO
    INDEX 00 04:33:63
FILE "15 - Birdy.wav" WAVE
    INDEX 01 00:00:00
Код:
AUDIOCHECKER v2.0 beta (build 457) - by Dester - opdester@freemail.hu
~~~~~~~~~~~~~~~~~~~~~~~~~~~~~~~~~~
-=== DO NOT EDIT THIS FILE! ===-
Path: ...\Various - Cyberworld II (1994)
01 -=- 01 - Cyberworld.flac -=- CDDA (99%)
02 -=- 02 - Backdraft.flac -=- CDDA (100%)
03 -=- 03 - War of Violence.flac -=- CDDA (100%)
04 -=- 04 - Renegate.flac -=- CDDA (99%)
05 -=- 05 - They're Right, I'm Wrong.flac -=- CDDA (100%)
06 -=- 06 - Contagious.flac -=- CDDA (100%)
07 -=- 07 - Turn Up the Music (Leather bunny mix).flac -=- CDDA (100%)
08 -=- 08 - Overloaded.flac -=- CDDA (100%)
09 -=- 09 - Argon.flac -=- CDDA (100%)
10 -=- 10 - Aquanoid.flac -=- CDDA (100%)
11 -=- 11 - Fuck - Die (Short & Kinky Disco Mix).flac -=- CDDA (100%)
12 -=- 12 - Norman Bates.flac -=- CDDA (100%)
13 -=- 13 - Cut Me Down (Freedom Remix).flac -=- CDDA (100%)
14 -=- 14 - Tribe.flac -=- CDDA (99%)
15 -=- 15 - Birdy.flac -=- CDDA (100%)
Summary 99,80% CDDA
85696900
Правила, инструкции, FAQ!!!
Торрент  Добавлен [26 июн 2020, 19:46] Скачать торрент Магнет ссылка
Скачать торрент
[ Размер 20.79 КБ / Просмотров 8 ]

Статус
Проверен 
 
Размер  493.54 МБ
Приватный: Нет (DHT включён)
.torrent скачан  0
 


     Отправить личное сообщение
   
Страница 1 из 1
Показать сообщения за:  Поле сортировки  
Начать новую тему Ответить на тему


Сейчас этот форум просматривают: нет зарегистрированных пользователей и гости: 0


Вы не можете начинать темы
Вы не можете отвечать на сообщения
Вы не можете редактировать свои сообщения
Вы не можете удалять свои сообщения
Вы не можете добавлять вложения

Перейти:  
cron