Начать новую тему Ответить на тему
Статистика раздачи
Размер: 399.23 МБ | Добавлен: 26 июн 2020, 16:54 | Скачали: 0
Сидеров: 0  [0 байт/сек]    Личеров: 0  [0 байт/сек]
Пред. тема | След. тема 

Автор
Сообщение

СообщениеДобавлено: 26 июн 2020, 16:54 

Ответить с цитатой 

Cybercide - Adrenalin
Жанр: EBM, Electro,Industrial
Год выпуска диска: 2006
Производитель диска: UK
Аудио кодек: APE
Тип рипа: image+.cue
Битрейт аудио: lossless
Продолжительность: 43:01
Трэклист:
01.Eisengrau 1:55
02. Searchlight 5:05
03. Exocet 4:56
04. Further 5:47
05. Isolate 5:19
06. Redshift 4:31
07. Underfire 4:28
08. Recoil 4:56
09. Faceless 5:59
Код:
Exact Audio Copy V0.99 prebeta 5 from 4. May 2009
Отчёт EAC об извлечении, выполненном 20. декабря 2009, 15:47
Cybercide / Adrenalin
Дисковод: _NEC    DVD_RW ND-4550A   Adapter: 0  ID: 0
Режим чтения                 : Достоверность
Использование точного потока : Да
Отключение кэша аудио        : Да
Использование указателей C2  : Нет
Коррекция смещения при чтении                     : 48
Способность читать области Lead-in и Lead-out     : Нет
Заполнение пропущенных сэмплов тишиной            : Да
Удаление блоков с тишиной в начале и конце        : Нет
При вычислениях CRC использовались нулевые сэмплы : Да
Интерфейс                                         : Установленный внешний ASPI-интерфейс
Выходной формат : Внутренние WAV-операции
Формат сэмплов  : 44.100 Гц; 16 бит; стерео
TOC извлечённого CD
     Трек |   Старт  | Длительность | Начальный сектор | Конечный сектор
    ---------------------------------------------------------------------
       1  |  0:00.00 |    1:55.58   |           0      |       8682
       2  |  1:55.58 |    5:05.29   |        8683      |      31586
       3  |  7:01.12 |    4:56.34   |       31587      |      53820
       4  | 11:57.46 |    5:47.71   |       53821      |      79916
       5  | 17:45.42 |    5:19.66   |       79917      |     103907
       6  | 23:05.33 |    4:31.69   |      103908      |     124301
       7  | 27:37.27 |    4:28.03   |      124302      |     144404
       8  | 32:05.30 |    4:56.43   |      144405      |     166647
       9  | 37:01.73 |    5:59.74   |      166648      |     193646
Характеристики диапазона извлечения и сообщения об ошибках
Выбранный диапазон
     Имя файла E:\! РАЗДАЧИ\Cybercide - Adrenalin\Cybercide - Adrenalin.wav
     Пиковый уровень 97.7 %
     Качество диапазона 100.0 %
     CRC теста 20CC9811
     CRC копии 20CC9811
     Копирование... OK
Ошибок не произошло
AccurateRip: сводка
Трек  1  точное извлечение (доверие 1)  [3F3F71E9]
Трек  2  точное извлечение (доверие 1)  [46720005]
Трек  3  точное извлечение (доверие 1)  [FBE8D026]
Трек  4  точное извлечение (доверие 1)  [BAD9F20C]
Трек  5  точное извлечение (доверие 1)  [9099CC94]
Трек  6  точное извлечение (доверие 1)  [4681A2DB]
Трек  7  точное извлечение (доверие 1)  [183A0775]
Трек  8  точное извлечение (доверие 1)  [459089AF]
Трек  9  точное извлечение (доверие 1)  [546BF978]
Все треки извлечены точно
Конец отчёта
Доп. информация: Сканы 300dpi приложены, имеются signatures участников коллектива текущего на тот момент (08.03.2009) состава.
(c) CYBERCIDE 2006
A Threatened Witness Recording
Distributed Worldwide by Resurrection Records
5 050521 003962
Правила, инструкции, FAQ!!!
Торрент  Добавлен [26 июн 2020, 16:54] Скачать торрент Магнет ссылка
Скачать торрент
[ Размер 32.49 КБ / Просмотров 3 ]

Статус
Проверен 
 
Размер  399.23 МБ
Приватный: Нет (DHT включён)
.torrent скачан  0
 


     Отправить личное сообщение
   
Страница 1 из 1
Показать сообщения за:  Поле сортировки  
Начать новую тему Ответить на тему


Сейчас этот форум просматривают: нет зарегистрированных пользователей и гости: 0


Вы не можете начинать темы
Вы не можете отвечать на сообщения
Вы не можете редактировать свои сообщения
Вы не можете удалять свои сообщения
Вы не можете добавлять вложения

Перейти:  
cron