Начать новую тему Ответить на тему
Статистика раздачи
Размер: 395.14 МБ | Добавлен: 26 июн 2020, 17:11 | Скачали: 0
Сидеров: 0  [0 байт/сек]    Личеров: 0  [0 байт/сек]
Пред. тема | След. тема 

Автор
Сообщение

СообщениеДобавлено: 26 июн 2020, 17:11 

Ответить с цитатой 

Cruciform Injection - Critical
Жанр: EBM, Electro, Industrial
Страна-производитель диска: USA
Год издания диска: 2002
Издатель (лейбл): Negative Gain Productions
Номер по каталогу: NGP80203
Страна: USA
Аудио кодек: FLAC (*.flac)
Тип рипа: tracks+.cue
Битрейт аудио: lossless
Продолжительность: 66:50
Источник (релизер): What.CD
Наличие сканов в содержимом раздачи: нет
Треклист:
01. Let It Die (5:08)
02. Between Reality (4:15)
03. Masticating Swarm (Rendered Flesh Mix) (4:36)
04. Recovery (4:21)
05. Stand Down (4:23)
06. Close Your Eyes (4:57)
07. Utopian Landscapes (5:25)
08. Sister Electricity (Soulless Mix) (4:01)
09. Breaking Skies (5:15)
10. Defiance (1:06)
11. Cold Inertia (4:25)
12. Lacrimal Involucre (Funker Vogt Mix) (4:55)
13. Breaking Skies (Icon Of Coil Mix) (5:33)
14. Defiance (Massiv In Mensch Mix) (5:11)
Код:
Exact Audio Copy V0.99 prebeta 5 from 4. May 2009
EAC extraction logfile from 5. March 2010, 18:32
Cruciform Injection / Critical
Used drive  : HP      DVD Writer 1170d   Adapter: 1  ID: 0
Read mode               : Secure
Utilize accurate stream : Yes
Defeat audio cache      : Yes
Make use of C2 pointers : No
Read offset correction                      : 6
Overread into Lead-In and Lead-Out          : No
Fill up missing offset samples with silence : Yes
Delete leading and trailing silent blocks   : No
Null samples used in CRC calculations       : Yes
Used interface                              : Native Win32 interface for Win NT & 2000
Gap handling                                : Appended to previous track
Used output format              : User Defined Encoder
Selected bitrate                : 1024 kBit/s
Quality                         : High
Add ID3 tag                     : No
Command line compressor         : D:\Users\Garth\audio_workshop\Exact Audio Copy\Flac\flac.exe
Additional command line options : -V -8 -T "artist=%a" -T "title=%t" -T "album=%g" -T "date=%y" -T "tracknumber=%n" -T "genre=%m" %s
TOC of the extracted CD
     Track |   Start  |  Length  | Start sector | End sector
    ---------------------------------------------------------
        1  |  0:00.00 |  5:07.03 |         0    |    23027
        2  |  5:07.03 |  4:14.41 |     23028    |    42118
        3  |  9:21.44 |  4:35.52 |     42119    |    62795
        4  | 13:57.21 |  4:20.12 |     62796    |    82307
        5  | 18:17.33 |  4:22.63 |     82308    |   102020
        6  | 22:40.21 |  4:56.64 |    102021    |   124284
        7  | 27:37.10 |  5:24.58 |    124285    |   148642
        8  | 33:01.68 |  4:00.35 |    148643    |   166677
        9  | 37:02.28 |  5:14.54 |    166678    |   190281
       10  | 42:17.07 |  4:31.38 |    190282    |   210644
       11  | 46:48.45 |  4:24.12 |    210645    |   230456
       12  | 51:12.57 |  4:54.15 |    230457    |   252521
       13  | 56:06.72 |  5:32.07 |    252522    |   277428
       14  | 61:39.04 |  5:10.37 |    277429    |   300715
Track  1
     Filename T:\EACrips\Cruciform Injection - 2002 - Critical [FLAC]\01 - Let It Die.wav
     Pre-gap length  0:00:02.00
     Peak level 100.0 %
     Track quality 100.0 %
     Test CRC 46F5F86F
     Copy CRC 46F5F86F
     Accurately ripped (confidence 1)  [4616905C]
     Copy OK
Track  2
     Filename T:\EACrips\Cruciform Injection - 2002 - Critical [FLAC]\02 - Between Reality.wav
     Peak level 100.0 %
     Track quality 100.0 %
     Test CRC 0467689F
     Copy CRC 0467689F
     Accurately ripped (confidence 1)  [EB61A20C]
     Copy OK
Track  3
     Filename T:\EACrips\Cruciform Injection - 2002 - Critical [FLAC]\03 - Masticating Swarm (Rendered Flesh Mix).wav
     Peak level 100.0 %
     Track quality 100.0 %
     Test CRC 22C49FB3
     Copy CRC 22C49FB3
     Accurately ripped (confidence 1)  [DE2E3319]
     Copy OK
Track  4
     Filename T:\EACrips\Cruciform Injection - 2002 - Critical [FLAC]\04 - Recovery.wav
     Peak level 100.0 %
     Track quality 100.0 %
     Test CRC 0BF18F01
     Copy CRC 0BF18F01
     Accurately ripped (confidence 1)  [D8C197E5]
     Copy OK
Track  5
     Filename T:\EACrips\Cruciform Injection - 2002 - Critical [FLAC]\05 - Stand Down.wav
     Peak level 100.0 %
     Track quality 100.0 %
     Test CRC 60183993
     Copy CRC 60183993
     Accurately ripped (confidence 1)  [1E96B90F]
     Copy OK
Track  6
     Filename T:\EACrips\Cruciform Injection - 2002 - Critical [FLAC]\06 - Close Your Eyes.wav
     Peak level 100.0 %
     Track quality 99.9 %
     Test CRC FD312A21
     Copy CRC FD312A21
     Accurately ripped (confidence 1)  [06A8688E]
     Copy OK
Track  7
     Filename T:\EACrips\Cruciform Injection - 2002 - Critical [FLAC]\07 - Utopian Landscapes.wav
     Peak level 100.0 %
     Track quality 99.9 %
     Test CRC 832B8272
     Copy CRC 832B8272
     Accurately ripped (confidence 1)  [F8208CA1]
     Copy OK
Track  8
     Filename T:\EACrips\Cruciform Injection - 2002 - Critical [FLAC]\08 - Sister Electricity (Soulless Mix).wav
     Peak level 100.0 %
     Track quality 100.0 %
     Test CRC 4955B924
     Copy CRC 4955B924
     Accurately ripped (confidence 1)  [0C3F0EF5]
     Copy OK
Track  9
     Filename T:\EACrips\Cruciform Injection - 2002 - Critical [FLAC]\09 - Breaking Skies.wav
     Peak level 100.0 %
     Track quality 100.0 %
     Test CRC 0C0EC080
     Copy CRC 0C0EC080
     Accurately ripped (confidence 1)  [72A0DB23]
     Copy OK
Track 10
     Filename T:\EACrips\Cruciform Injection - 2002 - Critical [FLAC]\10 - Defiance.wav
     Peak level 100.0 %
     Track quality 100.0 %
     Test CRC C23C173B
     Copy CRC C23C173B
     Accurately ripped (confidence 1)  [D06F574D]
     Copy OK
Track 11
     Filename T:\EACrips\Cruciform Injection - 2002 - Critical [FLAC]\11 - Cold Inertia.wav
     Peak level 100.0 %
     Track quality 100.0 %
     Test CRC 14849A93
     Copy CRC 14849A93
     Accurately ripped (confidence 1)  [92A851F0]
     Copy OK
Track 12
     Filename T:\EACrips\Cruciform Injection - 2002 - Critical [FLAC]\12 - Lacrimal Involucre (Funker Vogt Remix).wav
     Peak level 100.0 %
     Track quality 99.9 %
     Test CRC 408E3B23
     Copy CRC 408E3B23
     Accurately ripped (confidence 1)  [AD7A7C27]
     Copy OK
Track 13
     Filename T:\EACrips\Cruciform Injection - 2002 - Critical [FLAC]\13 - Breaking Skies (Icon of Coil Remix).wav
     Peak level 100.0 %
     Track quality 100.0 %
     Test CRC A0C0304F
     Copy CRC A0C0304F
     Track not present in AccurateRip database
     Copy OK
Track 14
     Filename T:\EACrips\Cruciform Injection - 2002 - Critical [FLAC]\14 - Defiance (Massiv In Mensch Remix).wav
     Peak level 100.0 %
     Track quality 99.9 %
     Test CRC 587BBC27
     Copy CRC 587BBC27
     Track not present in AccurateRip database
     Copy OK
12 track(s) accurately ripped
 2 track(s) not present in the AccurateRip database
Some tracks could not be verified as accurate
No errors occurred
End of status report
Код:
REM GENRE Industrial
REM DATE 2002
REM DISCID CE0FA90E
REM COMMENT "ExactAudioCopy v0.99pb5"
PERFORMER "Cruciform Injection"
TITLE "Critical"
FILE "01 - Let It Die.wav" WAVE
  TRACK 01 AUDIO
    TITLE "Let It Die"
    PERFORMER "Cruciform Injection"
    INDEX 01 00:00:00
FILE "02 - Between Reality.wav" WAVE
  TRACK 02 AUDIO
    TITLE "Between Reality"
    PERFORMER "Cruciform Injection"
    INDEX 01 00:00:00
FILE "03 - Masticating Swarm (Rendered Flesh Mix).wav" WAVE
  TRACK 03 AUDIO
    TITLE "Masticating Swarm (Rendered Flesh Mix)"
    PERFORMER "Cruciform Injection"
    INDEX 01 00:00:00
FILE "04 - Recovery.wav" WAVE
  TRACK 04 AUDIO
    TITLE "Recovery"
    PERFORMER "Cruciform Injection"
    INDEX 01 00:00:00
FILE "05 - Stand Down.wav" WAVE
  TRACK 05 AUDIO
    TITLE "Stand Down"
    PERFORMER "Cruciform Injection"
    INDEX 01 00:00:00
FILE "06 - Close Your Eyes.wav" WAVE
  TRACK 06 AUDIO
    TITLE "Close Your Eyes"
    PERFORMER "Cruciform Injection"
    INDEX 01 00:00:00
FILE "07 - Utopian Landscapes.wav" WAVE
  TRACK 07 AUDIO
    TITLE "Utopian Landscapes"
    PERFORMER "Cruciform Injection"
    INDEX 01 00:00:00
FILE "08 - Sister Electricity (Soulless Mix).wav" WAVE
  TRACK 08 AUDIO
    TITLE "Sister Electricity (Soulless Mix)"
    PERFORMER "Cruciform Injection"
    INDEX 01 00:00:00
FILE "09 - Breaking Skies.wav" WAVE
  TRACK 09 AUDIO
    TITLE "Breaking Skies"
    PERFORMER "Cruciform Injection"
    INDEX 01 00:00:00
FILE "10 - Defiance.wav" WAVE
  TRACK 10 AUDIO
    TITLE "Defiance"
    PERFORMER "Cruciform Injection"
    INDEX 01 00:00:00
FILE "11 - Cold Inertia.wav" WAVE
  TRACK 11 AUDIO
    TITLE "Cold Inertia"
    PERFORMER "Cruciform Injection"
    INDEX 01 00:00:00
FILE "12 - Lacrimal Involucre (Funker Vogt Remix).wav" WAVE
  TRACK 12 AUDIO
    TITLE "Lacrimal Involucre (Funker Vogt Remix)"
    PERFORMER "Cruciform Injection"
    INDEX 01 00:00:00
FILE "13 - Breaking Skies (Icon of Coil Remix).wav" WAVE
  TRACK 13 AUDIO
    TITLE "Breaking Skies (Icon of Coil Remix)"
    PERFORMER "Cruciform Injection"
    INDEX 01 00:00:00
FILE "14 - Defiance (Massiv In Mensch Remix).wav" WAVE
  TRACK 14 AUDIO
    TITLE "Defiance (Massiv In Mensch Remix)"
    PERFORMER "Cruciform Injection"
    INDEX 01 00:00:00

Cruciform Injection is a Chicago-based aggrotech band. The main member is Micah Skaritka, vocals and sequencing. Kassi plays keyboards for live shows, Brendan7 plays guitar, and Jonathan Ian is on drums. Most albums have bonus remixes from largely European electronic music artists.

Внимание! Все выложенные здесь материалы предоставлены исключительно в целях ознакомления! После ознакомления с материалами Вы обязаны их удалить! Если Вы хотите пользоваться данным материалом в дальнейшем – Вы должны приобрести лицензионный диск.
Лучшая ваша благодарность за раздачу - отзывы об альбоме!
Правила, инструкции, FAQ!!!
Торрент  Добавлен [26 июн 2020, 17:11] Скачать торрент Магнет ссылка
Скачать торрент
[ Размер 16.93 КБ / Просмотров 4 ]

Статус
Проверен 
 
Размер  395.14 МБ
Приватный: Нет (DHT включён)
.torrent скачан  0
 


     Отправить личное сообщение
   
Страница 1 из 1
Показать сообщения за:  Поле сортировки  
Начать новую тему Ответить на тему


Сейчас этот форум просматривают: нет зарегистрированных пользователей и гости: 0


Вы не можете начинать темы
Вы не можете отвечать на сообщения
Вы не можете редактировать свои сообщения
Вы не можете удалять свои сообщения
Вы не можете добавлять вложения

Перейти:  
cron