Начать новую тему Ответить на тему
Статистика раздачи
Размер: 309.65 МБ | Добавлен: 26 июн 2020, 16:54 | Скачали: 0
Сидеров: 0  [0 байт/сек]    Личеров: 0  [0 байт/сек]
Пред. тема | След. тема 

Автор
Сообщение

СообщениеДобавлено: 26 июн 2020, 16:54 

Ответить с цитатой 

Chineseblack - Mainstream
Жанр: EBM, Electro, Industrial
Год выпуска диска: 2002
Производитель диска: Германия
Аудио кодек: APE
Тип рипа: image+.cue
Битрейт аудио: lossless
Продолжительность: 00:45:55
Трэклист:
01.Nova
02.21st Century Kick
03.Prostitute
04.Karma
05.Newsagent
06.Religion
07.Futurelounge
08.Supersonic City
09.Fasterlife
10.Supernova
Exact Audio Copy V0.99 prebeta 5 from 4. May 2009
Отчёт EAC об извлечении, выполненном 23. июля 2009, 20:01
ChineseBlack / Mainstream
Дисковод: Optiarc DVD RW AD-7201S Adapter: 1 ID: 1
Режим чтения : Достоверность
Использование точного потока : Да
Отключение кэша аудио : Да
Использование указателей C2 : Нет
Коррекция смещения при чтении : 48
Способность читать области Lead-in и Lead-out : Нет
Заполнение пропущенных сэмплов тишиной : Да
Удаление блоков с тишиной в начале и конце : Нет
При вычислениях CRC использовались нулевые сэмплы : Да
Интерфейс : Установленный внешний ASPI-интерфейс
Выходной формат : Внутренние WAV-операции
Формат сэмплов : 44.100 Гц; 16 бит; стерео
TOC извлечённого CD
Трек | Старт | Длительность | Начальный сектор | Конечный сектор
---------------------------------------------------------------------
1 | 0:00.00 | 4:40.41 | 0 | 21040
2 | 4:40.41 | 4:47.02 | 21041 | 42567
3 | 9:27.43 | 3:56.05 | 42568 | 60272
4 | 13:23.48 | 4:51.26 | 60273 | 82123
5 | 18:14.74 | 5:21.40 | 82124 | 106238
6 | 23:36.39 | 3:57.49 | 106239 | 124062
7 | 27:34.13 | 3:15.59 | 124063 | 138746
8 | 30:49.72 | 3:46.18 | 138747 | 155714
9 | 34:36.15 | 4:37.71 | 155715 | 176560
10 | 39:14.11 | 6:42.48 | 176561 | 206758
Характеристики диапазона извлечения и сообщения об ошибках
Выбранный диапазон
Имя файла D:\Documents and Settings\Rodexx\Рабочий стол\Chineseblack - Mainstream\ChineseBlack - Mainstream.wav
Пиковый уровень 100.0 %
Качество диапазона 99.9 %
CRC копии EED6EC14
Копирование... OK
Ошибок не произошло
Конец отчёта
Правила, инструкции, FAQ!!!
Торрент  Добавлен [26 июн 2020, 16:54] Скачать торрент Магнет ссылка
Скачать торрент
[ Размер 12.83 КБ / Просмотров 5 ]

Статус
Проверен 
 
Размер  309.65 МБ
Приватный: Нет (DHT включён)
.torrent скачан  0
 


     Отправить личное сообщение
   
Страница 1 из 1
Показать сообщения за:  Поле сортировки  
Начать новую тему Ответить на тему


Сейчас этот форум просматривают: нет зарегистрированных пользователей и гости: 0


Вы не можете начинать темы
Вы не можете отвечать на сообщения
Вы не можете редактировать свои сообщения
Вы не можете удалять свои сообщения
Вы не можете добавлять вложения

Перейти:  
cron